Master (2021) 720p WEBRip x26 Full Torrent Magnet Download

Download Torrent Master (2021) 720p WEBRip x26 Movie Full in HD Result. Movie Master (2021) 720p WEBRip x26 Torrent Download full. Movie Master (2021) 720p WEBRip x26 torrent Magnet Download Full. Master (2021) 720p WEBRip x26 Full Movie Torrent Download And Magnet Download For your PC And Mobiles. Latest Movie Master (2021) 720p WEBRip x26 Download Link In Bottom.

Torrent And Magnet Links Below

Master (2021):

An alcoholic professor who is sent to a juvenile school, where he clashes with a gangster,

who uses the children of the school for criminal activities.

Cast: Malavika Mohanan, Joseph Vijay, Vijay Sethupathi
Director: Lokesh Kanagaraj.

Format : Matroska
Format version : Version 4
File size : 2.06 GiB
Duration : 2 h 57 min
Overall bit rate : 1 661 kb/s

Video
ID : 1
Format : AVC
Format/Info : Advanced Video Codec
Format profile : [email protected]
Format settings : CABAC / 5 Ref Frames
Format settings, CABAC : Yes
Format settings, Reference frames : 5 frames
Codec ID : V_MPEG4/ISO/AVC
Duration : 2 h 57 min
Bit rate : 1 281 kb/s
Width : 1 280 pixels
Height : 528 pixels
Display aspect ratio : 2.40:1
Original display aspect ratio : 2.40:1
Frame rate mode : Constant
Frame rate : 24.000 FPS
Color space : YUV
Chroma subsampling : 4:2:0
Bit depth : 8 bits
Scan type : Progressive
Bits/(Pixel*Frame) : 0.079
Stream size : 1.59 GiB (77%)

Audio #1
ID : 2
Format : AAC LC
Format/Info : Advanced Audio Codec Low Complexity
Codec ID : A_AAC-2
Duration : 2 h 57 min
Bit rate : 126 kb/s
Channel(s) : 2 channels
Channel layout : L R
Sampling rate : 44.1 kHz
Frame rate : 43.066 FPS (1024 SPF)
Compression mode : Lossy
Stream size : 159 MiB (8%)
Language : Tamil
Default : Yes
Forced : Yes

Audio #2
ID : 3
Format : AAC LC
Format/Info : Advanced Audio Codec Low Complexity
Codec ID : A_AAC-2
Duration : 2 h 57 min
Bit rate : 126 kb/s
Channel(s) : 2 channels
Channel layout : L R
Sampling rate : 44.1 kHz
Frame rate : 43.066 FPS (1024 SPF)
Compression mode : Lossy
Stream size : 159 MiB (8%)
Language : Telugu
Default : No
Forced : No

Audio #3
ID : 4
Format : AAC LC
Format/Info : Advanced Audio Codec Low Complexity
Codec ID : A_AAC-2
Duration : 2 h 57 min
Bit rate : 126 kb/s
Channel(s) : 2 channels
Channel layout : L R
Sampling rate : 44.1 kHz
Frame rate : 43.066 FPS (1024 SPF)
Compression mode : Lossy
Stream size : 159 MiB (8%)
Language : Malayalam
Default : No
Forced : No

Text
ID : 5
Format : UTF-8
Codec ID : S_TEXT/UTF8
Codec ID/Info : UTF-8 Plain Text
Duration : 2 h 52 min
Bit rate : 63 b/s
Count of elements : 2494
Stream size : 80.3 KiB (0%)
Language : English
Default : Yes

Master (2021) 720p WEBRip x26Download Torrent Magnet

#Master #720p #WEBRip #x26