Marvels.Helstrom.S01E10.Hell. Full Torrent Magnet Download

Download Torrent Marvels.Helstrom.S01E10.Hell. Movie Full in HD Result. Movie Marvels.Helstrom.S01E10.Hell. Torrent Download full. Movie Marvels.Helstrom.S01E10.Hell. torrent Magnet Download Full. Marvels.Helstrom.S01E10.Hell. Full Movie Torrent Download And Magnet Download For your PC And Mobiles. Latest Movie Marvels.Helstrom.S01E10.Hell. Download Link In Bottom.

Torrent And Magnet Links Below

DATI – TRAMA

Paese Stati Uniti d’America

Anno 2020

Formato serie TV

Genere drammatico, fantasy, orrore, supereroi

Stagioni 1

Episodi 10

Durata 44-55 min (episodio)

Lingua originale inglese

Daimon e Ana Helstrom, i figli di un potente serial killer, danno la caccia al peggio dell’umanità.

IMMAGINI



REPORT

General

Unique ID : 38125423087225047841986784870434423804 (0x1CAEB07C4BDE28960466BF0067DD43FC)

Complete name : C:UsersAdministratorVideosMarvels Helstrom S01Marvels.Helstrom.S01E01.Mothers.Little.Helpers.2160p.WEBMux.HEVC.ITA.ENG.DD5.1.x265-BlackBit.mkv

Format : Matroska

Format version : Version 4

File size : 5.06 GiB

Duration : 55 min 49 s

Overall bit rate : 13.0 Mb/s

Encoded date : UTC 2021-02-23 15:35:30

Writing application : mkvmerge v52.0.0 (‘Secret For The Mad’) 64-bit

Writing library : libebml v1.4.1 + libmatroska v1.6.2

Video

ID : 1

Format : HEVC

Format/Info : High Efficiency Video Coding

Format profile : Main [email protected]@Main

Codec ID : V_MPEGH/ISO/HEVC

Duration : 55 min 49 s

Bit rate : 12.4 Mb/s

Width : 3 840 pixels

Height : 2 160 pixels

Display aspect ratio : 16:9

Frame rate mode : Constant

Frame rate : 23.976 (24000/1001) FPS

Color space : YUV

Chroma subsampling : 4:2:0

Bit depth : 10 bits

Bits/(Pixel*Frame) : 0.063

Stream size : 4.85 GiB (96%)

Default : Yes

Forced : Yes

Audio #1

ID : 2

Format : AC-3

Format/Info : Audio Coding 3

Commercial name : Dolby Digital

Codec ID : A_AC3

Duration : 55 min 49 s

Bit rate mode : Constant

Bit rate : 256 kb/s

Channel(s) : 6 channels

Channel layout : L R C LFE Ls Rs

Sampling rate : 48.0 kHz

Frame rate : 31.250 FPS (1536 SPF)

Compression mode : Lossy

Stream size : 102 MiB (2%)

Language : Italian

Service kind : Complete Main

Default : Yes

Forced : Yes

Audio #2

ID : 3

Format : E-AC-3

Format/Info : Enhanced AC-3

Commercial name : Dolby Digital Plus

Codec ID : A_EAC3

Duration : 55 min 49 s

Bit rate mode : Constant

Bit rate : 256 kb/s

Channel(s) : 6 channels

Channel layout : L R C LFE Ls Rs

Sampling rate : 48.0 kHz

Frame rate : 31.250 FPS (1536 SPF)

Compression mode : Lossy

Stream size : 102 MiB (2%)

Language : English

Service kind : Complete Main

Default : No

Forced : No

Text #1

ID : 4

Format : UTF-8

Codec ID : S_TEXT/UTF8

Codec ID/Info : UTF-8 Plain Text

Duration : 40 min 59 s

Bit rate : 0 b/s

Count of elements : 5

Stream size : 156 Bytes (0%)

Language : Italian

Default : Yes

Forced : Yes

Text #2

ID : 5

Format : UTF-8

Codec ID : S_TEXT/UTF8

Codec ID/Info : UTF-8 Plain Text

Duration : 52 min 49 s

Bit rate : 44 b/s

Count of elements : 569

Stream size : 17.3 KiB (0%)

Language : Italian

Default : No

Forced : No

Text #3

ID : 6

Format : UTF-8

Codec ID : S_TEXT/UTF8

Codec ID/Info : UTF-8 Plain Text

Duration : 55 min 36 s

Bit rate : 61 b/s

Count of elements : 810

Stream size : 24.9 KiB (0%)

Title : SDH

Language : English

Default : No

Forced : No

Menu

00:17:30.000 : en:Chapter 01

00:27:42.005 : en:Chapter 02

00:37:07.008 : en:Chapter 03

00:50:02.007 : en:Chapter 04

GOOD DOWNLOAD

Marvels.Helstrom.S01E10.Hell.Download Torrent Magnet

#MarvelsHelstromS01E10Hell