Marvel Studios Legends S01E07 Full Torrent Magnet Download

Download Torrent Marvel Studios Legends S01E07 Movie Full in HD Result. Movie Marvel Studios Legends S01E07 Torrent Download full. Movie Marvel Studios Legends S01E07 torrent Magnet Download Full. Marvel Studios Legends S01E07 Full Movie Torrent Download And Magnet Download For your PC And Mobiles. Latest Movie Marvel Studios Legends S01E07 Download Link In Bottom.

Torrent And Magnet Links Below

Media Information

General

Unique ID                                : 39172940650100213793531090755686450645 (0x1D786F16BE154B019137FE21301345D5)

Complete name                            : Marvel Studios Legends S01E08 The Tesseract 1080p WEBrip x265 DDP5.1 D0ct0rLew[SEV].mkv

Format                                   : Matroska

Format version                           : Version 4

File size                                : 222 MiB

Duration                                 : 6 min 49 s

Overall bit rate                         : 4 546 kb/s

Movie name                               : Marvel Studios Legends S01E08 The Tesseract 1080p WEBrip x265 DDP5.1 D0ct0rLew[SEV]
Encoded date                             : UTC 2021-06-08 16:17:32

Writing application                      : mkvmerge v56.1.0 (‘My Friend’) 64-bit

Writing library                          : libebml v1.4.2 + libmatroska v1.6.4

Attachments                              : Gabriola.ttf

Video

ID                                       : 1

Format                                   : HEVC

Format/Info                              : High Efficiency Video Coding

Format profile                           : Main [email protected]@Main

Codec ID                                 : V_MPEGH/ISO/HEVC

Duration                                 : 6 min 49 s

Bit rate                                 : 3 738 kb/s

Width                                    : 1 920 pixels

Height                                   : 1 080 pixels

Display aspect ratio                     : 16:9

Frame rate mode                          : Constant

Frame rate                               : 23.976 (24000/1001) FPS

Color space                              : YUV

Chroma subsampling                       : 4:2:0

Bit depth                                : 10 bits

Bits/(Pixel*Frame)                       : 0.075

Stream size                              : 182 MiB (82%)

Writing library                          : x265 3.5+9-bf91444e0:[Windows][MSVC 1928][64 bit] 10bit

Encoding settings                        : cpuid=1111039 / frame-threads=3 / numa-pools=8 / wpp / no-pmode / no-pme / no-psnr / no-ssim / log-level=2 / input-csp=1 / input-res=1920×1080 / interlace=0 / total-frames=1440 / level-idc=0 / high-tier=1 / uhd-bd=0 / ref=4 / no-allow-non-conformance / no-repeat-headers / annexb / no-aud / no-eob / no-eos / no-hrd / info / hash=0 / no-temporal-layers / open-gop / min-keyint=24 / keyint=240 / gop-lookahead=0 / bframes=16 / b-adapt=2 / b-pyramid / bframe-bias=0 / rc-lookahead=90 / lookahead-slices=4 / scenecut=40 / hist-scenecut=0 / radl=0 / no-splice / no-intra-refresh / ctu=64 / min-cu-size=8 / no-rect / no-amp / max-tu-size=32 / tu-inter-depth=4 / tu-intra-depth=4 / limit-tu=0 / rdoq-level=2 / dynamic-rd=0.00 / no-ssim-rd / signhide / no-tskip / nr-intra=0 / nr-inter=0 / no-constrained-intra / no-strong-intra-smoothing / max-merge=5 / limit-refs=0 / limit-modes / me=3 / subme=7 / merange=92 / temporal-mvp / no-frame-dup / no-hme / weightp / no-weightb / no-analyze-src-pics / deblock=0:0 / sao / no-sao-non-deblock / rd=4 / selective-sao=4 / no-early-skip / rskip / no-fast-intra / no-tskip-fast / no-cu-lossless / no-b-intra / no-splitrd-skip / rdpenalty=0 / psy-rd=1.60 / psy-rdoq=1.00 / no-rd-refine / no-lossless / cbqpoffs=0 / crqpoffs=0 / rc=crf / crf=19.0 / qcomp=0.69 / qpstep=4 / stats-write=0 / stats-read=0 / ipratio=1.40 / pbratio=1.30 / aq-mode=4 / aq-strength=1.30 / cutree / zone-count=0 / no-strict-cbr / qg-size=32 / no-rc-grain / qpmax=69 / qpmin=0 / no-const-vbv / sar=1 / overscan=0 / videoformat=5 / range=0 / colorprim=2 / transfer=2 / colormatrix=2 / chromaloc=0 / display-window=0 / cll=0,0 / min-luma=0 / max-luma=1023 / log2-max-poc-lsb=8 / vui-timing-info / vui-hrd-info / slices=1 / no-opt-qp-pps / no-opt-ref-list-length-pps / no-multi-pass-opt-rps / scenecut-bias=0.05 / hist-threshold=0.03 / no-opt-cu-delta-qp / no-aq-motion / no-hdr10 / no-hdr10-opt / no-dhdr10-opt / no-idr-recovery-sei / analysis-reuse-level=0 / analysis-save-reuse-level=0 / analysis-load-reuse-level=0 / scale-factor=0 / refine-intra=0 / refine-inter=0 / refine-mv=1 / refine-ctu-distortion=0 / no-limit-sao / ctu-info=0 / no-lowpass-dct / refine-analysis-type=0 / copy-pic=1 / max-ausize-factor=1.0 / no-dynamic-refine / no-single-sei / no-hevc-aq / no-svt / no-field / qp-adaptation-range=1.00 / scenecut-aware-qp=0conformance-window-offsets / right=0 / bottom=0 / decoder-max-rate=0 / no-vbv-live-multi-pass

Default                                  : Yes

Forced                                   : No

Audio

ID                                       : 2

Format                                   : E-AC-3 JOC

Format/Info                              : Enhanced AC-3 with Joint Object Coding

Commercial name                          : Dolby Digital Plus with Dolby Atmos

Codec ID                                 : A_EAC3

Duration                                 : 6 min 49 s

Bit rate mode                            : Constant

Bit rate                                 : 768 kb/s

Channel(s)                               : 6 channels

Channel layout                           : L R C LFE Ls Rs

Sampling rate                            : 48.0 kHz

Frame rate                               : 31.250 FPS (1536 SPF)

Compression mode                         : Lossy

Stream size                              : 37.5 MiB (17%)

Language                                 : English

Service kind                             : Complete Main

Default                                  : Yes

Forced                                   : No

Complexity index                         : 16

Number of dynamic objects                : 15

Bed channel count                        : 1 channel

Bed channel configuration                : LFE

Text #1

ID                                       : 3

Format                                   : ASS

Codec ID                                 : S_TEXT/ASS

Codec ID/Info                            : Advanced Sub Station Alpha

Duration                                 : 6 min 37 s

Bit rate                                 : 94 b/s

Count of elements                        : 85

Compression mode                         : Lossless

Stream size                              : 4.58 KiB (0%)

Language                                 : English

Default                                  : Yes

Forced                                   : No

Text #2

ID                                       : 4

Format                                   : UTF-8

Codec ID                                 : S_TEXT/UTF8

Codec ID/Info                            : UTF-8 Plain Text

Duration                                 : 6 min 43 s

Bit rate                                 : 48 b/s

Count of elements                        : 63

Stream size                              : 2.38 KiB (0%)

Language                                 : Danish

Default                                  : No

Forced                                   : No

Text #3

ID                                       : 5

Format                                   : UTF-8

Codec ID                                 : S_TEXT/UTF8

Codec ID/Info                            : UTF-8 Plain Text

Duration                                 : 6 min 43 s

Bit rate                                 : 50 b/s

Count of elements                        : 76

Stream size                              : 2.50 KiB (0%)

Language                                 : German

Default                                  : No

Forced                                   : No

Text #4

ID                                       : 6

Format                                   : UTF-8

Codec ID                                 : S_TEXT/UTF8

Codec ID/Info                            : UTF-8 Plain Text

Duration                                 : 6 min 43 s

Bit rate                                 : 48 b/s

Count of elements                        : 78

Stream size                              : 2.41 KiB (0%)

Title                                    : Latin American

Language                                 : Spanish

Default                                  : No

Forced                                   : No

Text #5

ID                                       : 7

Format                                   : UTF-8

Codec ID                                 : S_TEXT/UTF8

Codec ID/Info                            : UTF-8 Plain Text

Duration                                 : 6 min 43 s

Bit rate                                 : 49 b/s

Count of elements                        : 78

Stream size                              : 2.46 KiB (0%)

Title                                    : European

Language                                 : Spanish

Default                                  : No

Forced                                   : No

Text #6

ID                                       : 8

Format                                   : UTF-8

Codec ID                                 : S_TEXT/UTF8

Codec ID/Info                            : UTF-8 Plain Text

Duration                                 : 6 min 43 s

Bit rate                                 : 45 b/s

Count of elements                        : 77

Stream size                              : 2.22 KiB (0%)

Language                                 : Finnish

Default                                  : No

Forced                                   : No

Text #7

ID                                       : 9

Format                                   : UTF-8

Codec ID                                 : S_TEXT/UTF8

Codec ID/Info                            : UTF-8 Plain Text

Duration                                 : 6 min 43 s

Bit rate                                 : 51 b/s

Count of elements                        : 77

Stream size                              : 2.55 KiB (0%)

Language                                 : French

Default                                  : No

Forced                                   : No

Text #8

ID                                       : 10

Format                                   : UTF-8

Codec ID                                 : S_TEXT/UTF8

Codec ID/Info                            : UTF-8 Plain Text

Duration                                 : 6 min 43 s

Bit rate                                 : 48 b/s

Count of elements                        : 77

Stream size                              : 2.38 KiB (0%)

Language                                 : French

Default                                  : No

Forced                                   : No

Text #9

ID                                       : 11

Format                                   : UTF-8

Codec ID                                 : S_TEXT/UTF8

Codec ID/Info                            : UTF-8 Plain Text

Duration                                 : 6 min 43 s

Bit rate                                 : 47 b/s

Count of elements                        : 77

Stream size                              : 2.34 KiB (0%)

Language                                 : Italian

Default                                  : No

Forced                                   : No

Text #10

ID                                       : 12

Format                                   : UTF-8

Codec ID                                 : S_TEXT/UTF8

Codec ID/Info                            : UTF-8 Plain Text

Duration                                 : 6 min 43 s

Bit rate                                 : 48 b/s

Count of elements                        : 70

Stream size                              : 2.40 KiB (0%)

Language                                 : Dutch

Default                                  : No

Forced                                   : No

Text #11

ID                                       : 13

Format                                   : UTF-8

Codec ID                                 : S_TEXT/UTF8

Codec ID/Info                            : UTF-8 Plain Text

Duration                                 : 6 min 43 s

Bit rate                                 : 42 b/s

Count of elements                        : 77

Stream size                              : 2.11 KiB (0%)

Language                                 : Norwegian

Default                                  : No

Forced                                   : No

Text #12

ID                                       : 14

Format                                   : UTF-8

Codec ID                                 : S_TEXT/UTF8

Codec ID/Info                            : UTF-8 Plain Text

Duration                                 : 6 min 43 s

Bit rate                                 : 50 b/s

Count of elements                        : 78

Stream size                              : 2.49 KiB (0%)

Title                                    : Brazilian

Language                                 : Portuguese

Default                                  : No

Forced                                   : No

Text #13

ID                                       : 15

Format                                   : UTF-8

Codec ID                                 : S_TEXT/UTF8

Codec ID/Info                            : UTF-8 Plain Text

Duration                                 : 6 min 43 s

Bit rate                                 : 48 b/s

Count of elements                        : 78

Stream size                              : 2.40 KiB (0%)

Title                                    : European

Language                                 : Portuguese

Default                                  : No

Forced                                   : No

Text #14

ID                                       : 16

Format                                   : UTF-8

Codec ID                                 : S_TEXT/UTF8

Codec ID/Info                            : UTF-8 Plain Text

Duration                                 : 6 min 43 s

Bit rate                                 : 46 b/s

Count of elements                        : 76

Stream size                              : 2.29 KiB (0%)

Language                                 : Swedish

Default                                  : No

Forced                                   : No

We have no issue with individuals posting or re-uploading our torrents on a platform we aren’t on. However, if this is something you’d like to do, please do so in a ‘as-is’ format. We ask that you do not create a new torrent, include all descriptions you see above including the SEV logo, tags, notes and screenshots.
If you’d like to become a permanent poster on a website we don’t post to, feel free to get in contact with a Sublime Encoded Video member.

We are recruiting/training new members for SEV & seedbox providers as well as people to help out with subtitles.
As you already know, we deliver quality, so you know the standard.
If you’re interested, feel free to contact any of the team members.

Marvel Studios Legends S01E07Download Torrent Magnet

#Marvel #Studios #Legends #S01E07