Malabimba Uncut (1979) VM 108 Full Torrent Magnet Download

Download Torrent Malabimba Uncut (1979) VM 108 Movie Full in HD Result. Movie Malabimba Uncut (1979) VM 108 Torrent Download full. Movie Malabimba Uncut (1979) VM 108 torrent Magnet Download Full. Malabimba Uncut (1979) VM 108 Full Movie Torrent Download And Magnet Download For your PC And Mobiles. Latest Movie Malabimba Uncut (1979) VM 108 Download Link In Bottom.

Torrent And Magnet Links Below

Malabimba Uncut (1979) VM 1080p h264 Ac3 Ita Eng Sub Eng – MIRCrew

NO FOUND ONLY ORIGINAL RELEASE

My release is always in double track audio italian and Original audio

for select it use VLC or dvd player home

not use wmp

Classifichiamolo vietato ai minori di 18 anni in quanto è la versione non censurata

con qualche scena esplicita di sesso , insomma un Horror non adatto ai bambini nulla di più che nei classici film di Tinto Brass

Let’s classify it as prohibited for anyone under 18 as it is the uncensored version

with some explicit sex scenes, in short, a Horror not suitable for children nothing more than classic Tinto Brass films

Malabimba Uncut (1979)

Quality MIRCrew in HD 1080p da 2,0 gb

Lingua originale italiano

Paese di produzione Italia

Anno 1979

Durata 87 min

Rapporto 1,66:1

Genere orrore, erotico

Regia Andrew White

Sceneggiatura Piero Regnoli

Produttore Gabriele Crisanti

Casa di produzione Filmarte

Fotografia Franco Villa

Musiche Elsio Mancuso, Berto Pisano

Scenografia Giovanni Fratalocchi

Trucco Mauro Gavazzi

Maria Angela Giordano: suor Sofia

Katell Laennec: Bimba Caroli

Patrizia Webley: Nais

Enzo Fisichella: Andrea Caroli

Giuseppe Marrocu: Adolfo Caroli

Elisa Mainardi: la medium

Giancarlo Del Duca: Giorgio

Pupita Lea: madre di Andrea

Nel castello di una facoltosa famiglia viene rievocato, durante una seduta spiritica, lo spirito di Lucrezia, una antenata della casata. Lo spirito di Lucrezia tenta, nella stessa notte, di impossessarsi dell’anima di suor Sofia, la quale vive da tempo nel castello per prendersi cura del paralitico Adolfo, proprietario del castello assieme al fratello Andrea e marito di Nais. Non riuscendovi si impossessa dunque dell’anima dell’adolescente Bimba, figlia di Andrea, che fino ad allora aveva trascorso una vita molto ritirata e riservata.

Bimba, a sixteen year old daughter of a wealthy family, is starting to show disturbing signs of demonic possession.

[spoiler]General

Complete name : Malabimba Uncut (1979) 1080p h264 Ac3 Ita Eng Sub Eng – MIRCrewMalabimba Uncut (1979) 1080p h264 Ac3 Ita Eng Sub Eng – MIRCrew.mkv

Format : Matroska

Format version : Version 2

File size : 2.09 GiB

Duration : 1h 40mn

Overall bit rate : 2 981 Kbps

Movie name : MIRCrew

Encoded date : UTC 2021-05-16T11:50:19Z

Writing application : mkvmerge v5.8.0 (‘No Sleep / Pillow’) built on Sep 2 2012 15:37:04

Writing library : Lavf55.12.0

Video

ID : 1

Format : AVC

Format/Info : Advanced Video Codec

Format profile : [email protected]
Format settings, CABAC : Yes

Format settings, ReFrames : 4 frames

Codec ID : V_MPEG4/ISO/AVC

Duration : 1h 40mn

Bit rate : 2 600 Kbps

Width : 1 920 pixels

Height : 1 024 pixels

Display aspect ratio : 1.875

Frame rate : 23.976 fps

Color space : YUV

Chroma subsampling : 4:2:0

Bit depth : 8 bits

Scan type : Progressive

Bits/(Pixel*Frame) : 0.055

Stream size : 1.78 GiB (85%)

Title : MIRCrew

Writing library : x264 core 142 r2479 dd79a61

Encoding settings : cabac=1 / ref=1 / deblock=1:0:0

Language : Italian

Default : Yes

Forced : No

Color primaries : BT.709-5, BT.1361, IEC 61966-2-4, SMPTE RP177

Transfer characteristics : BT.709-5, BT.1361

Matrix coefficients : BT.709-5, BT.1361, IEC 61966-2-4 709, SMPTE RP177

Audio #1

ID : 2

Format : AC-3

Format/Info : Audio Coding 3

Mode extension : CM (complete main)

Codec ID : A_AC3

Duration : 1h 40mn

Bit rate mode : Constant

Bit rate : 192 Kbps

Channel(s) : 2 channels

Channel positions : Front: L R

Sampling rate : 48.0 KHz

Bit depth : 16 bits

Compression mode : Lossy

Delay relative to video : -5ms

Stream size : 138 MiB (6%)

Title : Ita Ac3

Language : Italian

Default : Yes

Forced : No

Audio #2

ID : 3

Format : AC-3

Format/Info : Audio Coding 3

Mode extension : CM (complete main)

Codec ID : A_AC3

Duration : 1h 40mn

Bit rate mode : Constant

Bit rate : 192 Kbps

Channel(s) : 2 channels

Channel positions : Front: L R

Sampling rate : 48.0 KHz

Bit depth : 16 bits

Compression mode : Lossy

Delay relative to video : -5ms

Stream size : 138 MiB (6%)

Title : Eng Commentary Ac3

Language : English

Default : No

Forced : No

Menu

00:00:00.000 : :Chapter 1

00:21:16.400 : :Chapter 2

00:41:00.583 : :Chapter 3

00:58:09.611 : :Chapter 4

01:20:09.429 : :Chapter 5

[/spoiler]

Malabimba Uncut (1979) VM 108Download Torrent Magnet

#Malabimba #Uncut