Madam Kitty – Salon Kitty (19 Full Torrent Magnet Download

Download Torrent Madam Kitty – Salon Kitty (19 Movie Full in HD Result. Movie Madam Kitty – Salon Kitty (19 Torrent Download full. Movie Madam Kitty – Salon Kitty (19 torrent Magnet Download Full. Madam Kitty – Salon Kitty (19 Full Movie Torrent Download And Magnet Download For your PC And Mobiles. Latest Movie Madam Kitty – Salon Kitty (19 Download Link In Bottom.

Torrent And Magnet Links Below

Salon Kitty (1976) 1080p h264 Ac3 Ita Eng MultiSub – MIRCrew


NO FOUND ONLY ORIGINAL RELEASE

My release is always in double track audio italian and Original audio

for select it use VLC or dvd player home

not use wmp

Subtitles: English, French, Spanish

Salon Kitty (1976) 1080p h264 Ac3 Ita Eng MultiSub – MIRCrew

Quality MIRCrew on HD 1080p da 2,8 gb

 

Paese di produzione Italia, Germania Ovest, Francia

Anno 1975

Durata 130 min

Colore colore

Audio sonoro

Genere drammatico, erotico

Regia Tinto Brass

Soggetto Peter Norden (romanzo) (non accreditato), Antonio Colantuoni, Ennio De Concini, Maria Pia Fusco

Sceneggiatura Ennio De Concini, Maria Pia Fusco, Tinto Brass

Fotografia Silvano Ippoliti

Montaggio Tinto Brass

Musiche Fiorenzo Carpi

Scenografia Ken Adam

Costumi Ugo Pericoli, Jost Jacob

Helmut Berger: Helmut Wallenberg

Ingrid Thulin: Kitty Kellermann

Teresa Ann Savoy: Margherita

Margherita Horowitz: madre di Margherita

John Steiner: Biondo

Sara Sperati

Maria Michi: Ilde

Rosemarie Lindt

Paola Senatore

John Ireland: Cliff

Tina Aumont: Herta Wallenberg

Stefano Satta Flores: Dino

Bekim Fehmiu; Hans Reiter

Malisa Longo

Ullrich Haupt:

Berlino, Kitty Schmidt è la proprietaria della più prestigiosa casa di appuntamenti: ha trasformato il proprio locale, il “Salon Kitty” appunto, in un bordello d’alto rango destinato solamente a ufficiali dell’esercito. Il bordello, a sua insaputa, è un sofisticatissimo centro di spionaggio dove le prostitute, rigorosamente selezionate, ascoltano segreti, paure, confessioni e bisbigli dei loro più affezionati clienti……………

Kitty runs a brothel in Nazi Germany where the soldiers come to “relax”. Recording devices have been installed in each room by a power hungry army official who plans to use the information to blackmail Hitler and gain power himself. A girl named Margherita discovers the little ploy and with Kitty’s help plans to take on the dangerous task of exposing the conspiracy………

 

[spoiler]General

Salon Kitty (1976) 1080p h264 Ac3 Ita Eng MultiSub – MIRCrew.mkv

Format                                   : Matroska

Format version                           : Version 2

File size                                : 2.82 GiB

Duration                                 : 2h 13mn

Overall bit rate                         : 3 035 Kbps

Movie name                               : MIRCrew

Encoded date                             : UTC 2021-05-09 16:17:09

Writing application                      : mkvmerge v5.8.0 (‘No Sleep / Pillow’) built on Sep  2 2012 15:37:04

Writing library                          : Lavf54.63.100

COMMENT                                  : MIRCrew

Video

ID                                       : 1

Format                                   : AVC

Format/Info                              : Advanced Video Codec

Format profile                           : [email protected]
Format settings, CABAC                   : Yes

Format settings, ReFrames                : 2 frames

Codec ID                                 : V_MPEG4/ISO/AVC

Duration                                 : 2h 13mn

Bit rate                                 : 2 600 Kbps

Width                                    : 1 904 pixels

Height                                   : 1 024 pixels

Display aspect ratio                     : 1.866

Original display aspect ratio            : 1.867

Frame rate mode                          : Variable

Frame rate                               : 23.976 fps

Color space                              : YUV

Chroma subsampling                       : 4:2:0

Bit depth                                : 8 bits

Scan type                                : Progressive

Bits/(Pixel*Frame)                       : 0.056

Stream size                              : 2.41 GiB (85%)

Title                                    : MIRCrew

Writing library                          : x264 core 130 r2273

Encoding settings                        : cabac=1 / ref=2 / deblock=1:-1:-1
Language                                 : Italian

Default                                  : Yes

Forced                                   : No

Encoded date                             : UTC 2036-02-06 06:28:16

HANDLER_NAME                             : VideoHandler

Audio #1

ID                                       : 2

Format                                   : AC-3

Format/Info                              : Audio Coding 3

Mode extension                           : CM (complete main)

Codec ID                                 : A_AC3

Duration                                 : 2h 13mn

Bit rate mode                            : Constant

Bit rate                                 : 192 Kbps

Channel(s)                               : 1 channel

Channel positions                        : Front: C

Sampling rate                            : 48.0 KHz

Bit depth                                : 16 bits

Compression mode                         : Lossy

Delay relative to video                  : -42ms

Stream size                              : 183 MiB (6%)

Title                                    : Ita Ac3

Language                                 : English

Default                                  : Yes

Forced                                   : No

Encoded date                             : UTC 2036-02-06 06:28:16

HANDLER_NAME                             : Mono

Audio #2

ID                                       : 3

Format                                   : AC-3

Format/Info                              : Audio Coding 3

Mode extension                           : CM (complete main)

Codec ID                                 : A_AC3

Duration                                 : 2h 13mn

Bit rate mode                            : Constant

Bit rate                                 : 192 Kbps

Channel(s)                               : 1 channel

Channel positions                        : Front: C

Sampling rate                            : 48.0 KHz

Bit depth                                : 16 bits

Compression mode                         : Lossy

Delay relative to video                  : -5ms

Stream size                              : 183 MiB (6%)

Title                                    : Eng Ac3

Language                                 : English

Default                                  : No

Forced                                   : No

Text #1

ID                                       : 4

Format                                   : PGS

Muxing mode                              : zlib

Codec ID                                 : S_HDMV/PGS

Codec ID/Info                            : The same subtitle format used on BDs/HD-DVDs

Default                                  : Yes

Forced                                   : No

Text #2

ID                                       : 5

Format                                   : PGS

Muxing mode                              : zlib

Codec ID                                 : S_HDMV/PGS

Codec ID/Info                            : The same subtitle format used on BDs/HD-DVDs

Default                                  : No

Forced                                   : No

Text #3

ID                                       : 6

Format                                   : PGS

Muxing mode                              : zlib

Codec ID                                 : S_HDMV/PGS

Codec ID/Info                            : The same subtitle format used on BDs/HD-DVDs

Default                                  : No

Forced                                   : No

Text #4

ID                                       : 7

Format                                   : PGS

Muxing mode                              : zlib

Codec ID                                 : S_HDMV/PGS

Codec ID/Info                            : The same subtitle format used on BDs/HD-DVDs

Default                                  : No

Forced                                   : No

Text #5

ID                                       : 8

Format                                   : PGS

Muxing mode                              : zlib

Codec ID                                 : S_HDMV/PGS

Codec ID/Info                            : The same subtitle format used on BDs/HD-DVDs

Default                                  : No

Forced                                   : No

Text #6

ID                                       : 9

Format                                   : PGS

Muxing mode                              : zlib

Codec ID                                 : S_HDMV/PGS

Codec ID/Info                            : The same subtitle format used on BDs/HD-DVDs

Default                                  : No

Forced                                   : No

[/spoiler]

Madam Kitty – Salon Kitty (19Download Torrent Magnet

#Madam #Kitty #Salon #Kitty