Madam.Chief.Minister.2020.Hin Full Torrent Magnet Download

Download Torrent Madam.Chief.Minister.2020.Hin Movie Full in HD Result. Movie Madam.Chief.Minister.2020.Hin Torrent Download full. Movie Madam.Chief.Minister.2020.Hin torrent Magnet Download Full. Madam.Chief.Minister.2020.Hin Full Movie Torrent Download And Magnet Download For your PC And Mobiles. Latest Movie Madam.Chief.Minister.2020.Hin Download Link In Bottom.

Torrent And Magnet Links Below

General

Unique ID : 165696076384542727682109389268224034066 (0x7CA7E74CEEB751121AA1BCFEC183C512)

Complete name :Madam.Chief.Minister.2020.1080p.NF.WEB-DL.DD+5.1.x264-Telly.mkv

Format : Matroska

Format version : Version 4 / Version 2

File size : 3.93 GiB

Duration : 2h 1mn

Overall bit rate mode : Variable

Overall bit rate : 4 647 Kbps

Movie name : Telly

Encoded date : UTC 2021-03-20 06:57:06

Writing application : mkvmerge v53.0.0 (‘Fool’s Gold’) 64-bit

Writing library : libebml v1.4.1 + libmatroska v1.6.2

Video

ID : 1

Format : AVC

Format/Info : Advanced Video Codec

Format profile : [email protected]
Format settings, CABAC : Yes

Format settings, ReFrames : 3 frames

Codec ID : V_MPEG4/ISO/AVC

Duration : 2h 1mn

Bit rate mode : Variable

Bit rate : 4 005 Kbps

Nominal bit rate : 3 528 Kbps

Maximum bit rate : 7 305 Kbps

Width : 1 920 pixels

Height : 1 080 pixels

Display aspect ratio : 16:9

Frame rate mode : Constant

Frame rate : 24.000 fps

Color space : YUV

Chroma subsampling : 4:2:0

Bit depth : 8 bits

Scan type : Progressive

Bits/(Pixel*Frame) : 0.080

Stream size : 3.39 GiB (86%)

Writing library : x264 core 148 r2722 1b0121b

Encoding settings : cabac=1 / ref=3 / deblock=1:0:0 / analyse=0x1:0x111 / me=umh / subme=10 / psy=1 / psy_rd=1.00:0.00 / mixed_ref=1 / me_range=24 / chroma_me=1 / trellis=2 / 8x8dct=0 / cqm=0 / deadzone=21,11 / fast_pskip=1 / chroma_qp_offset=-2 / threads=8 / lookahead_threads=1 / sliced_threads=0 / nr=0 / decimate=1 / interlaced=0 / bluray_compat=0 / stitchable=1 / constrained_intra=0 / bframes=2 / b_pyramid=0 / b_adapt=2 / b_bias=0 / direct=3 / weightb=1 / open_gop=0 / weightp=2 / keyint=250 / keyint_min=24 / scenecut=0 / intra_refresh=0 / rc_lookahead=48 / rc=2pass / mbtree=1 / bitrate=3528 / ratetol=1.0 / qcomp=0.50 / qpmin=6 / qpmax=51 / qpstep=4 / cplxblur=20.0 / qblur=0.5 / vbv_maxrate=7305 / vbv_bufsize=9740 / nal_hrd=vbr / filler=0 / ip_ratio=1.40 / aq=1:1.00

Default : Yes

Forced : No

Audio

ID : 2

Format : E-AC-3

Format/Info : Audio Coding 3

Format settings, Endianness : Big

Codec ID : A_EAC3

Duration : 2h 1mn

Bit rate mode : Constant

Bit rate : 640 Kbps

Channel(s) : 6 channels

Channel positions : Front: L C R, Side: L R, LFE

Sampling rate : 48.0 KHz

Frame rate : 187.500 fps (256 spf)

Compression mode : Lossy

Stream size : 555 MiB (14%)

Title : Hindi

Language : Hindi

Default : Yes

Forced : No

Text #1

ID : 3

Format : UTF-8

Codec ID : S_TEXT/UTF8

Codec ID/Info : UTF-8 Plain Text

Duration : 1h 55mn

Bit rate : 67 bps

Count of elements : 1711

Stream size : 56.7 KiB (0%)

Title : English

Language : English

Default : No

Forced : No

Text #2

ID : 4

Format : UTF-8

Codec ID : S_TEXT/UTF8

Codec ID/Info : UTF-8 Plain Text

Duration : 1h 55mn

Bit rate : 67 bps

Count of elements : 1711

Stream size : 56.7 KiB (0%)

Title : English

Language : English

Default : No

Forced : No

Madam.Chief.Minister.2020.HinDownload Torrent Magnet

#MadamChiefMinister2020Hin