Lux.Æterna.2019.FRENCH.720p.W Full Torrent Magnet Download

Download Torrent Lux.Æterna.2019.FRENCH.720p.W Movie Full in HD Result. Movie Lux.Æterna.2019.FRENCH.720p.W Torrent Download full. Movie Lux.Æterna.2019.FRENCH.720p.W torrent Magnet Download Full. Lux.Æterna.2019.FRENCH.720p.W Full Movie Torrent Download And Magnet Download For your PC And Mobiles. Latest Movie Lux.Æterna.2019.FRENCH.720p.W Download Link In Bottom.

Torrent And Magnet Links Below

Release: Lux.Æterna.2019.FRENCH.720p.WEBRip.x264-EXTREME

IMDB: https://www.imdb.com/title/tt10272534

Plot: Two actresses, Béatrice Dalle and Charlotte Gainsbourg, are on a film set telling stories about witches – but that’s not all. ‘Lux Æterna’ is also an essay on cinema, the love of film, and on-set hysterics.

Complete name : Lux.Æterna.2019.FRENCH.720p.WEBRip.x264-EXTREME.mkv

Format : Matroska

Format version : Version 4

File size : 1.12 GiB

Duration : 51 min 21 s

Overall bit rate : 3 113 kb/s

Encoded date : UTC 2021-01-07 15:05:41

Writing application : mkvmerge v52.0.0 (‘Secret For The Mad’) 64-bit

Writing library : libebml v1.4.1 + libmatroska v1.6.2

Video

ID : 2

Format : AVC

Format/Info : Advanced Video Codec

Format profile : [email protected]
Format settings : CABAC / 4 Ref Frames

Format settings, CABAC : Yes

Format settings, Reference : 4 frames

Codec ID : V_MPEG4/ISO/AVC

Duration : 51 min 21 s

Bit rate : 2 727 kb/s

Width : 1 024 pixels

Height : 424 pixels

Display aspect ratio : 2.40:1

Frame rate mode : Constant

Frame rate : 24.000 FPS

Color space : YUV

Chroma subsampling : 4:2:0

Bit depth : 8 bits

Scan type : Progressive

Bits/(Pixel*Frame) : 0.262

Stream size : 1 002 MiB (88%)

Writing library : x264 core 157 r2935 545de2f

Encoding settings : cabac=1 / ref=3 / deblock=1:-1:-1 / analyse=0x3:0x113 / me=hex / subme=7 / psy=1 / psy_rd=1.00:0.15 / mixed_ref=1 / me_range=16 / chroma_me=1 / trellis=1 / 8x8dct=1 / cqm=0 / deadzone=21,11 / fast_pskip=1 / chroma_qp_offset=-3 / threads=13 / lookahead_threads=2 / sliced_threads=0 / nr=0 / decimate=1 / interlaced=0 / bluray_compat=0 / constrained_intra=0 / bframes=3 / b_pyramid=2 / b_adapt=1 / b_bias=0 / direct=1 / weightb=1 / open_gop=0 / weightp=2 / keyint=240 / keyint_min=24 / scenecut=40 / intra_refresh=0 / rc_lookahead=40 / rc=crf / mbtree=1 / crf=18.0 / qcomp=0.60 / qpmin=0 / qpmax=69 / qpstep=4 / vbv_maxrate=62500 / vbv_bufsize=78125 / crf_max=0.0 / nal_hrd=none / filler=0 / ip_ratio=1.40 / aq=1:1.00

Default : Yes

Forced : No

Audio

ID : 1

Format : AC-3

Format/Info : Audio Coding 3

Commercial name : Dolby Digital

Codec ID : A_AC3

Duration : 51 min 21 s

Bit rate mode : Constant

Bit rate : 384 kb/s

Channel(s) : 6 channels

Channel layout : L R C LFE Ls Rs

Sampling rate : 48.0 kHz

Frame rate : 31.250 FPS (1536 SPF)

Compression mode : Lossy

Stream size : 141 MiB (12%)

Language : French

Service kind : Complete Main

Default : Yes

Forced : No

SCREENSHOTS:








Lux.Æterna.2019.FRENCH.720p.WDownload Torrent Magnet

#LuxÆterna2019FRENCH720pW