Lupin III-Uno schizzo di sang Full Torrent Magnet Download

Download Torrent Lupin III-Uno schizzo di sang Movie Full in HD Result. Movie Lupin III-Uno schizzo di sang Torrent Download full. Movie Lupin III-Uno schizzo di sang torrent Magnet Download Full. Lupin III-Uno schizzo di sang Full Movie Torrent Download And Magnet Download For your PC And Mobiles. Latest Movie Lupin III-Uno schizzo di sang Download Link In Bottom.

Torrent And Magnet Links Below

Titolo originale LUPIN THE IIIRD 血煙の石川五ェ門

Lingua originale giapponese

Paese di produzione Giappone

Anno 2017

Durata 50 min

Genere azione, drammatico, avventura, thriller

Regia Takeshi Koike

Soggetto Monkey Punch

Sceneggiatura Yuuya Takahashi

Produttore Takeshi Koike, Yu Kiyozono

Casa di produzione TMS Entertainment

Distribuzione in italiano Prime Video

Musiche James Shimoji

Daisuke Namikawa: Goemon Ishikawa XIII

Kan’ichi Kurita: Arsenio Lupin III

Kiyoshi Kobayashi: Daisuke Jigen

Miyuki Sawashiro: Fujiko Mine

Kōichi Yamadera: Koichi Zenigata

L’amico di Lupin, il samurai Goemon Ishikawa, accetta un lavoro come guardia del corpo per un boss della yakuza. Ma un brutale assassino uccide il boss e Goemon ha l’onore di rintracciarlo.

Lupin’s friend, the samurai Goemon Ishikawa, takes a job as bodyguard for a yakuza boss. But a brutal assassin kills the yakuza and Goemon is honor-bound to track him down.




General

Unique ID : 195538784223188995705828531804824919215 (0x931B66653FFBC6F993BF6341FDF7DCAF)

Complete name : Lupin III-Uno schizzo di sangue per Goemon Ishikawa (2017) ITA-JAP Ac3 5.1 BDRip 1080p H264 [ArMor].mkv

Format : Matroska

Format version : Version 4

File size : 2.10 GiB

Duration : 53 min 14 s

Overall bit rate : 5 649 kb/s

Encoded date : UTC 2020-12-01 06:19:34

Writing application : mkvmerge v15.0.0 (‘Duel with the Devil’) 64-bit

Writing library : libebml v1.3.5 + libmatroska v1.4.5 / Lavf58.29.100

Video

ID : 1

Format : AVC

Format/Info : Advanced Video Codec

Format profile : [email protected]
Format settings : CABAC / 4 Ref Frames

Format settings, CABAC : Yes

Format settings, Reference frames : 4 frames

Codec ID : V_MPEG4/ISO/AVC

Duration : 53 min 14 s

Bit rate : 5 000 kb/s

Width : 1 920 pixels

Height : 1 080 pixels

Display aspect ratio : 16:9

Frame rate mode : Constant

Frame rate : 23.976 FPS

Color space : YUV

Chroma subsampling : 4:2:0

Bit depth : 8 bits

Scan type : Progressive

Bits/(Pixel*Frame) : 0.101

Stream size : 1.86 GiB (89%)

Writing library : x264 core 157 r2935 545de2f

Encoding settings : cabac=1 / ref=2 / deblock=1:0:0 / analyse=0x1:0x111 / me=hex / subme=6 / psy=1 / psy_rd=1.00:0.00 / mixed_ref=1 / me_range=16 / chroma_me=1 / trellis=1 / 8x8dct=0 / cqm=0 / deadzone=21,11 / fast_pskip=1 / chroma_qp_offset=-2 / threads=18 / lookahead_threads=3 / sliced_threads=0 / nr=0 / decimate=1 / interlaced=0 / bluray_compat=0 / constrained_intra=0 / bframes=3 / b_pyramid=2 / b_adapt=1 / b_bias=0 / direct=1 / weightb=1 / open_gop=0 / weightp=1 / keyint=240 / keyint_min=24 / scenecut=40 / intra_refresh=0 / rc_lookahead=30 / rc=abr / mbtree=1 / bitrate=5000 / ratetol=1.0 / qcomp=0.60 / qpmin=0 / qpmax=69 / qpstep=4 / vbv_maxrate=20000 / vbv_bufsize=25000 / nal_hrd=none / filler=0 / ip_ratio=1.40 / aq=1:1.00

Default : Yes

Forced : No

Color range : Limited

Color primaries : BT.709

Transfer characteristics : BT.709

Matrix coefficients : BT.709

Audio #1

ID : 2

Format : AC-3

Format/Info : Audio Coding 3

Commercial name : Dolby Digital

Codec ID : A_AC3

Duration : 53 min 14 s

Bit rate mode : Constant

Bit rate : 448 kb/s

Channel(s) : 6 channels

Channel layout : L R C LFE Ls Rs

Sampling rate : 48.0 kHz

Frame rate : 31.250 FPS (1536 SPF)

Compression mode : Lossy

Stream size : 171 MiB (8%)

Title : WEBDL EAC3

Language : Italian

Service kind : Complete Main

Default : Yes

Forced : No

Audio #2

ID : 3

Format : AC-3

Format/Info : Audio Coding 3

Commercial name : Dolby Digital

Codec ID : A_AC3

Duration : 53 min 14 s

Bit rate mode : Constant

Bit rate : 192 kb/s

Channel(s) : 2 channels

Channel layout : L R

Sampling rate : 48.0 kHz

Frame rate : 31.250 FPS (1536 SPF)

Compression mode : Lossy

Stream size : 73.1 MiB (3%)

Title : Stereo

Language : Japanese

Service kind : Complete Main

Default : No

Forced : No

Lupin III-Uno schizzo di sangDownload Torrent Magnet

#Lupin #IIIUno #schizzo #sang