Love.Flower.2019.HDRip.XviD.A Full Torrent Magnet Download

Download Torrent Love.Flower.2019.HDRip.XviD.A Movie Full in HD Result. Movie Love.Flower.2019.HDRip.XviD.A Torrent Download full. Movie Love.Flower.2019.HDRip.XviD.A torrent Magnet Download Full. Love.Flower.2019.HDRip.XviD.A Full Movie Torrent Download And Magnet Download For your PC And Mobiles. Latest Movie Love.Flower.2019.HDRip.XviD.A Download Link In Bottom.

Torrent And Magnet Links Below

Quote:

*************************************************************

******************************Thumbnbil:*********************

******************************Screenshots:********************

screenshot 1

screenshot 2

screenshot 3

screenshot 4

screenshot 5

screenshot 6

screenshot 7

screenshot 8

screenshot 9

screenshot 0

******************************************************

18+.Love.Flower.2019.HDRip.XviD.AC3.With.Sample.LLG.mp4

Format : MPEG-4

Format profile : Base Media

Codec ID : isom (isom/iso2/avc1/mp41)

File size : 963 MiB

Duration : 1 h 24 min

Overall bit rate mode : Variable

Overall bit rate : 1 593 kb/s

Writing application : Lavf57.83.100

Video

ID : 1

Format : AVC

Format/Info : Advanced Video Codec

Format profile : [email protected]
Format settings : CABAC / 1 Ref Frames

Format settings, CABAC : Yes

Format settings, Reference frames : 1 frame

Codec ID : avc1

Codec ID/Info : Advanced Video Coding

Duration : 1 h 24 min

Bit rate mode : Variable

Bit rate : 1 206 kb/s

Maximum bit rate : 3 600 kb/s

Width : 720 pixels

Height : 388 pixels

Display aspect ratio : 1.85:1

Frame rate mode : Constant

Frame rate : 23.976 (23976/1000) FPS

Color space : YUV

Chroma subsampling : 4:2:0

Bit depth : 8 bits

Scan type : Progressive

Bits/(Pixel*Frame) : 0.180

Stream size : 729 MiB (76%)

Language : English

Codec configuration box : avcC

Audio

ID : 2

Format : AC-3

Format/Info : Audio Coding 3

Commercial name : Dolby Digital

Codec ID : ac-3

Duration : 1 h 24 min

Bit rate mode : Constant

Bit rate : 384 kb/s

Channel(s) : 6 channels

Channel layout : L R C LFE Ls Rs

Sampling rate : 48.0 kHz

Frame rate : 31.250 FPS (1536 SPF)

Compression mode : Lossy

Stream size : 232 MiB (24%)

Language : English

Service kind : Complete Main

Default : Yes

Alternate group : 1

********************************************************

Love.Flower.2019.HDRip.XviD.ADownload Torrent Magnet

#LoveFlower2019HDRipXviDA