Loki.S01E01.Glorious.Purpose. Full Torrent Magnet Download

Download Torrent Loki.S01E01.Glorious.Purpose. Movie Full in HD Result. Movie Loki.S01E01.Glorious.Purpose. Torrent Download full. Movie Loki.S01E01.Glorious.Purpose. torrent Magnet Download Full. Loki.S01E01.Glorious.Purpose. Full Movie Torrent Download And Magnet Download For your PC And Mobiles. Latest Movie Loki.S01E01.Glorious.Purpose. Download Link In Bottom.

Torrent And Magnet Links Below

Loki.S01E01.Glorious.Purpose.WEB-DL.XviD.B4ND1T69

Stars: Tom Hiddleston, Owen Wilson, Sophia Di Martino

Plot/Story:

Glorious Purpose

Loki, the God of Mischief, finds himself out of time and in an unusual place and forced — against his godly disposition — to cooperate with others. Welcome to the TVA, y’all!

General

Complete name : Loki.S01E01.Glorious.Purpose.WEB-DL.XviD.B4ND1T69.avi

Format : AVI

Format/Info : Audio Video Interleave

File size : 264 MiB

Duration : 51 min 30 s

Overall bit rate : 717 kb/s

Subtitles : Yes…Included(HI)

Video

ID : 0

Format : MPEG-4 Visual

Format profile : Advanced [email protected]
Format settings, BVOP : 2

Format settings, QPel : No

Format settings, GMC : No warppoints

Format settings, Matrix : Default (H.263)

Codec ID : XVID

Codec ID/Hint : XviD

Duration : 51 min 30 s

Bit rate : 575 kb/s

Width : 640 pixels

Height : 360 pixels

Display aspect ratio : 16:9

Frame rate : 24.000 FPS

Color space : YUV

Chroma subsampling : 4:2:0

Bit depth : 8 bits

Scan type : Progressive

Compression mode : Lossy

Bits/(Pixel*Frame) : 0.104

Stream size : 212 MiB (80%)

Writing library : XviD 64

Audio

ID : 1

Format : MPEG Audio

Format version : Version 1

Format profile : Layer 3

Codec ID : 55

Codec ID/Hint : MP3

Duration : 51 min 30 s

Bit rate mode : Constant

Bit rate : 128 kb/s

Channel(s) : 2 channels

Sampling rate : 48.0 kHz

Compression mode : Lossy

Stream size : 47.2 MiB (18%)

Alignment : Aligned on interleaves

Interleave, duration : 24 ms (0.58 video frame)

Screenshots:






Please Seed For As Long As Possible

Or At Least 1:1 Ratio…Thanks

Enjoy Peeps

Loki.S01E01.Glorious.Purpose.Download Torrent Magnet

#LokiS01E01GloriousPurpose