Loki.S01E01.Glorious.Purpose. Full Torrent Magnet Download

Download Torrent Loki.S01E01.Glorious.Purpose. Movie Full in HD Result. Movie Loki.S01E01.Glorious.Purpose. Torrent Download full. Movie Loki.S01E01.Glorious.Purpose. torrent Magnet Download Full. Loki.S01E01.Glorious.Purpose. Full Movie Torrent Download And Magnet Download For your PC And Mobiles. Latest Movie Loki.S01E01.Glorious.Purpose. Download Link In Bottom.

Torrent And Magnet Links Below

Loki.S01E01.Glorious.Purpose.2160p.WEB-DL.x265.10bit.HDR.DDP5.1.Atmos-SWTYBLZ

Code:

MediaInfo «
Video

ID : 1

Format : HEVC

Format/Info : High Efficiency Video Coding

Format profile : Main [email protected]@Main

Codec ID : V_MPEGH/ISO/HEVC

Duration : 50 min 19 s

Bit rate : 21.6 Mb/s

Width : 3 840 pixels

Height : 2 160 pixels

Display aspect ratio : 16:9

Frame rate mode : Constant

Frame rate : 24.000 FPS

Color space : YUV

Chroma subsampling : 4:2:0

Bit depth : 10 bits

Bits/(Pixel*Frame) : 0.108

Stream size : 7.59 GiB (97%)

Writing library : x265 3.5:[Linux][GCC 7.5.0][64 bit] 10bit

Encoding settings : cpuid=1111039 / frame-threads=1 / wpp / no-pmode / no-pme / no-psnr / no-ssim / log-level=2 / input-csp=1 / input-res=3840×2160 / interlace=0 / total-frames=0 / level-idc=50 / high-tier=0 / uhd-bd=0 / ref=3 / no-allow-non-conformance / repeat-headers / annexb / no-aud / no-hrd / info / hash=0 / no-temporal-layers / no-open-gop / min-keyint=48 / keyint=48 / gop-lookahead=0 / bframes=2 / b-adapt=0 / b-pyramid / bframe-bias=0 / rc-lookahead=48 / lookahead-slices=8 / scenecut=0 / hist-scenecut=0 / radl=0 / splice / no-intra-refresh / ctu=32 / min-cu-size=8 / no-rect / no-amp / max-tu-size=16 / tu-inter-depth=2 / tu-intra-depth=2 / limit-tu=0 / rdoq-level=1 / dynamic-rd=0.00 / no-ssim-rd / signhide / no-tskip / nr-intra=0 / nr-inter=0 / no-constrained-intra / no-strong-intra-smoothing / max-merge=3 / limit-refs=1 / no-limit-modes / me=1 / subme=2 / merange=44 / temporal-mvp / no-frame-dup / no-hme / weightp / no-weightb / no-analyze-src-pics / deblock=0:0 / no-sao / no-sao-non-deblock / rd=4 / selective-sao=0 / early-skip / rskip / no-fast-intra / no-tskip-fast / no-cu-lossless / b-intra / no-splitrd-skip / rdpenalty=1 / psy-rd=1.60 / psy-rdoq=5.00 / no-rd-refine / no-lossless / cbqpoffs=0 / crqpoffs=0 / rc=abr / bitrate=23000 / qcomp=0.75 / qpstep=4 / stats-write=0 / stats-read=0 / vbv-maxrate=25000 / vbv-bufsize=25000 / vbv-init=0.9 / ipratio=1.40 / pbratio=1.30 / aq-mode=3 / aq-strength=1.00 / no-cutree / zone-count=0 / no-strict-cbr / qg-size=32 / no-rc-grain / qpmax=69 / qpmin=0 / no-const-vbv / sar=1 / overscan=0 / videoformat=5 / range=0 / colorprim=9 / transfer=16 / colormatrix=9 / chromaloc=0 / display-window=0 / cll=0,0 / min-luma=0 / max-luma=1023 / log2-max-poc-lsb=8 / vui-timing-info / vui-hrd-info / slices=1 / no-opt-qp-pps / no-opt-ref-list-length-pps / no-multi-pass-opt-rps / scenecut-bias=0.00 / hist-threshold=0.01 / no-opt-cu-delta-qp / no-aq-motion / no-hdr10 / hdr10-opt / no-dhdr10-opt / no-idr-recovery-sei / analysis-reuse-level=0 / analysis-save-reuse-level=0 / analysis-load-reuse-level=0 / scale-factor=0 / refine-intra=0 / refine-inter=0 / refine-mv=1 / refine-ctu-distortion=0 / no-limit-sao / ctu-info=0 / no-lowpass-dct / refine-analysis-type=0 / copy-pic=1 / max-ausize-factor=1.0 / no-dynamic-refine / no-single-sei / no-hevc-aq / no-svt / no-field / qp-adaptation-range=1.00 / no-scenecut-aware-qpconformance-window-offsets / right=0 / bottom=0

Default : Yes

Forced : No

Color range : Limited

Color primaries : BT.2020

Transfer characteristics : PQ

Matrix coefficients : BT.2020 non-constant

Audio

ID : 2

Format : E-AC-3 JOC

Format/Info : Enhanced AC-3 with Joint Object Coding

Commercial name : Dolby Digital Plus with Dolby Atmos

Codec ID : A_EAC3

Duration : 50 min 19 s

Bit rate mode : Constant

Bit rate : 768 kb/s

Channel(s) : 6 channels

Channel layout : L R C LFE Ls Rs

Sampling rate : 48.0 kHz

Frame rate : 31.250 FPS (1536 SPF)

Compression mode : Lossy

Stream size : 276 MiB (3%)

Language : English

Service kind : Complete Main

Default : Yes

Forced : No

Complexity index : 16

Number of dynamic objects : 15

Bed channel count : 1 channel

Bed channel configuration : LFE

Text #1

ID : 3

Format : UTF-8

Codec ID : S_TEXT/UTF8

Codec ID/Info : UTF-8 Plain Text

Duration : 50 min 5 s

Bit rate : 55 b/s

Count of elements : 688

Stream size : 20.4 KiB (0%)

Title : English (SDH)

Language : English

Default : Yes

Forced : No

Text #2

ID : 4

Format : UTF-8

Codec ID : S_TEXT/UTF8

Codec ID/Info : UTF-8 Plain Text

Duration : 50 min 6 s

Bit rate : 45 b/s

Count of elements : 409

Stream size : 16.6 KiB (0%)

Title : Dansk

Language : Danish

Default : No

Forced : No

Text #3

ID : 5

Format : UTF-8

Codec ID : S_TEXT/UTF8

Codec ID/Info : UTF-8 Plain Text

Duration : 50 min 6 s

Bit rate : 46 b/s

Count of elements : 558

Stream size : 17.2 KiB (0%)

Title : Deutsch

Language : German

Default : No

Forced : No

Text #4

ID : 6

Format : UTF-8

Codec ID : S_TEXT/UTF8

Codec ID/Info : UTF-8 Plain Text

Duration : 50 min 13 s

Bit rate : 49 b/s

Count of elements : 574

Stream size : 18.0 KiB (0%)

Title : Español (Latinoamérica)

Language : Spanish

Default : No

Forced : No

Text #5

ID : 7

Format : UTF-8

Codec ID : S_TEXT/UTF8

Codec ID/Info : UTF-8 Plain Text

Duration : 50 min 13 s

Bit rate : 48 b/s

Count of elements : 573

Stream size : 17.9 KiB (0%)

Title : Español

Language : Spanish

Default : No

Forced : No

Text #6

ID : 8

Format : UTF-8

Codec ID : S_TEXT/UTF8

Codec ID/Info : UTF-8 Plain Text

Duration : 50 min 6 s

Bit rate : 42 b/s

Count of elements : 573

Stream size : 15.6 KiB (0%)

Title : Suomi

Language : Finnish

Default : No

Forced : No

Text #7

ID : 9

Format : UTF-8

Codec ID : S_TEXT/UTF8

Codec ID/Info : UTF-8 Plain Text

Duration : 50 min 5 s

Bit rate : 42 b/s

Count of elements : 542

Stream size : 15.7 KiB (0%)

Title : Français (Canada)

Language : French

Default : No

Forced : No

Text #8

ID : 10

Format : UTF-8

Codec ID : S_TEXT/UTF8

Codec ID/Info : UTF-8 Plain Text

Duration : 50 min 6 s

Bit rate : 42 b/s

Count of elements : 538

Stream size : 15.6 KiB (0%)

Title : Français

Language : French

Default : No

Forced : No

Text #9

ID : 11

Format : UTF-8

Codec ID : S_TEXT/UTF8

Codec ID/Info : UTF-8 Plain Text

Duration : 50 min 6 s

Bit rate : 46 b/s

Count of elements : 573

Stream size : 17.1 KiB (0%)

Title : Italiano

Language : Italian

Default : No

Forced : No

Text #10

ID : 12

Format : UTF-8

Codec ID : S_TEXT/UTF8

Codec ID/Info : UTF-8 Plain Text

Duration : 50 min 6 s

Bit rate : 41 b/s

Count of elements : 573

Stream size : 15.4 KiB (0%)

Title : Norsk Bokmål

Language : Norwegian Bokmal

Default : No

Forced : No

Text #11

ID : 13

Format : UTF-8

Codec ID : S_TEXT/UTF8

Codec ID/Info : UTF-8 Plain Text

Duration : 50 min 6 s

Bit rate : 47 b/s

Count of elements : 476

Stream size : 17.6 KiB (0%)

Title : Nederlands

Language : Dutch

Default : No

Forced : No

Text #12

ID : 14

Format : UTF-8

Codec ID : S_TEXT/UTF8

Codec ID/Info : UTF-8 Plain Text

Duration : 50 min 13 s

Bit rate : 50 b/s

Count of elements : 574

Stream size : 18.7 KiB (0%)

Title : Português (Brasil)

Language : Portuguese

Default : No

Forced : No

Text #13

ID : 15

Format : UTF-8

Codec ID : S_TEXT/UTF8

Codec ID/Info : UTF-8 Plain Text

Duration : 50 min 13 s

Bit rate : 48 b/s

Count of elements : 577

Stream size : 17.9 KiB (0%)

Title : Português

Language : Portuguese

Default : No

Forced : No

Text #14

ID : 16

Format : UTF-8

Codec ID : S_TEXT/UTF8

Codec ID/Info : UTF-8 Plain Text

Duration : 50 min 6 s

Bit rate : 47 b/s

Count of elements : 497

Stream size : 17.5 KiB (0%)

Title : Svenska

Language : Swedish

Default : No

Forced : No

Text #15

ID : 17

Format : UTF-8

Codec ID : S_TEXT/UTF8

Codec ID/Info : UTF-8 Plain Text

Duration : 50 min 13 s

Bit rate : 45 b/s

Count of elements : 578

Stream size : 16.8 KiB (0%)

Title : 中文(简体)

Language : Chinese

Default : No

Forced : No

Text #16

ID : 18

Format : UTF-8

Codec ID : S_TEXT/UTF8

Codec ID/Info : UTF-8 Plain Text

Duration : 50 min 13 s

Bit rate : 38 b/s

Count of elements : 579

Stream size : 14.1 KiB (0%)

Title : 中文(繁體,中國香港特別行政區)

Language : Chinese

Default : No

Forced : No

Loki.S01E01.Glorious.Purpose.Download Torrent Magnet

#LokiS01E01GloriousPurpose