Loki.S01E01.Episode.01.2021.2 Full Torrent Magnet Download

Download Torrent Loki.S01E01.Episode.01.2021.2 Movie Full in HD Result. Movie Loki.S01E01.Episode.01.2021.2 Torrent Download full. Movie Loki.S01E01.Episode.01.2021.2 torrent Magnet Download Full. Loki.S01E01.Episode.01.2021.2 Full Movie Torrent Download And Magnet Download For your PC And Mobiles. Latest Movie Loki.S01E01.Episode.01.2021.2 Download Link In Bottom.

Torrent And Magnet Links Below

Special Thanks: ShiNobi

Code:


DETAILS

General

Unique ID                                : 41853703150300984705892478891752145777 (0x1F7CBAE276C68D7A8C6B4072DDCFC371)

Complete name                            : Loki.S01E01.Episode.01.2021.2160p.SDR.DSNP.WEB-DL.x265.HIN-ENG.DDP5.1.HEVC_ShiNobi_.mkv

Format                                   : Matroska

Format version                           : Version 4 / Version 2

File size                                : 6.94 GiB

Duration                                 : 50 min 22 s

Overall bit rate                         : 19.7 Mb/s

Movie name                               : [_ShiNobi_]
Encoded date                             : UTC 2021-06-09 07:43:55

Writing application                      : mkvmerge v57.0.0 (‘Till The End’) 64-bit

Writing library                          : libebml v1.4.2 + libmatroska v1.6.4

Video

ID                                       : 1

Format                                   : HEVC

Format/Info                              : High Efficiency Video Coding

Format profile                           : [email protected]@High

Codec ID                                 : V_MPEGH/ISO/HEVC

Duration                                 : 50 min 22 s

Bit rate                                 : 19.3 Mb/s

Width                                    : 3 840 pixels

Height                                   : 2 160 pixels

Display aspect ratio                     : 16:9

Frame rate mode                          : Constant

Frame rate                               : 24.000 FPS

Color space                              : YUV

Chroma subsampling                       : 4:2:0

Bit depth                                : 8 bits

Bits/(Pixel*Frame)                       : 0.097

Stream size                              : 6.80 GiB (98%)

Writing library                          : x265 3.5:[Linux][GCC 7.5.0][64 bit] 8bit+10bit+12bit

Encoding settings                        : cpuid=1111039 / frame-threads=1 / wpp / no-pmode / no-pme / no-psnr / no-ssim / log-level=2 / input-csp=1 / input-res=3840×2160 / interlace=0 / total-frames=0 / level-idc=50 / high-tier=1 / uhd-bd=0 / ref=2 / no-allow-non-conformance / repeat-headers / annexb / no-aud / no-hrd / info / hash=0 / no-temporal-layers / no-open-gop / min-keyint=48 / keyint=48 / gop-lookahead=0 / bframes=4 / b-adapt=0 / b-pyramid / bframe-bias=0 / rc-lookahead=48 / lookahead-slices=8 / scenecut=0 / hist-scenecut=0 / radl=0 / no-splice / no-intra-refresh / ctu=32 / min-cu-size=8 / no-rect / no-amp / max-tu-size=16 / tu-inter-depth=2 / tu-intra-depth=2 / limit-tu=0 / rdoq-level=1 / dynamic-rd=0.00 / no-ssim-rd / signhide / no-tskip / nr-intra=0 / nr-inter=0 / no-constrained-intra / no-strong-intra-smoothing / max-merge=3 / limit-refs=1 / no-limit-modes / me=1 / subme=2 / merange=44 / temporal-mvp / no-frame-dup / no-hme / weightp / no-weightb / no-analyze-src-pics / deblock=0:0 / no-sao / no-sao-non-deblock / rd=4 / selective-sao=0 / early-skip / rskip / no-fast-intra / no-tskip-fast / no-cu-lossless / b-intra / no-splitrd-skip / rdpenalty=1 / psy-rd=1.60 / psy-rdoq=5.00 / no-rd-refine / no-lossless / cbqpoffs=0 / crqpoffs=0 / rc=abr / bitrate=20000 / qcomp=0.75 / qpstep=4 / stats-write=0 / stats-read=0 / vbv-maxrate=24000 / vbv-bufsize=40000 / vbv-init=0.9 / ipratio=1.40 / pbratio=1.30 / aq-mode=3 / aq-strength=1.00 / no-cutree / zone-count=0 / no-strict-cbr / qg-size=32 / no-rc-grain / qpmax=69 / qpmin=0 / no-const-vbv / sar=1 / overscan=0 / videoformat=5 / range=0 / colorprim=1 / transfer=1 / colormatrix=1 / chromaloc=0 / display-window=0 / cll=0,0 / min-luma=0 / max-luma=255 / log2-max-poc-lsb=8 / vui-timing-info / vui-hrd-info / slices=1 / no-opt-qp-pps / no-opt-ref-list-length-pps / no-multi-pass-opt-rps / scenecut-bias=0.00 / hist-threshold=0.01 / no-opt-cu-delta-qp / no-aq-motion / no-hdr10 / no-hdr10-opt / no-dhdr10-opt / no-idr-recovery-sei / analysis-reuse-level=0 / analysis-save-reuse-level=0 / analysis-load-reuse-level=0 / scale-factor=0 / refine-intra=0 / refine-inter=0 / refine-mv=1 / refine-ctu-distortion=0 / no-limit-sao / ctu-info=0 / no-lowpass-dct / refine-analysis-type=0 / copy-pic=1 / max-ausize-factor=1.0 / no-dynamic-refine / no-single-sei / no-hevc-aq / no-svt / no-field / qp-adaptation-range=1.00 / no-scenecut-aware-qpconformance-window-offsets / right=0 / bottom=0

Default                                  : Yes

Forced                                   : No

Color range                              : Limited

Color primaries                          : BT.709

Transfer characteristics                 : BT.709

Matrix coefficients                      : BT.709

Audio #1

ID                                       : 2

Format                                   : E-AC-3

Format/Info                              : Enhanced Audio Coding 3

Codec ID                                 : A_EAC3

Duration                                 : 50 min 22 s

Bit rate mode                            : Constant

Bit rate                                 : 192 kb/s

Channel(s)                               : 6 channels

Channel positions                        : Front: L C R, Side: L R, LFE

Sampling rate                            : 48.0 kHz

Frame rate                               : 187.500 FPS (256 SPF)

Compression mode                         : Lossy

Stream size                              : 69.2 MiB (1%)

Title                                    : Hindi

Language                                 : Hindi

Service kind                             : Complete Main

Default                                  : No

Forced                                   : No

Audio #2

ID                                       : 3

Format                                   : E-AC-3

Format/Info                              : Enhanced Audio Coding 3

Codec ID                                 : A_EAC3

Duration                                 : 50 min 22 s

Bit rate mode                            : Constant

Bit rate                                 : 192 kb/s

Channel(s)                               : 6 channels

Channel positions                        : Front: L C R, Side: L R, LFE

Sampling rate                            : 48.0 kHz

Frame rate                               : 187.500 FPS (256 SPF)

Compression mode                         : Lossy

Stream size                              : 69.2 MiB (1%)

Title                                    : English

Language                                 : English

Service kind                             : Complete Main

Default                                  : Yes

Forced                                   : No

Text

ID                                       : 4

Format                                   : UTF-8

Codec ID                                 : S_TEXT/UTF8

Codec ID/Info                            : UTF-8 Plain Text

Duration                                 : 50 min 15 s

Bit rate                                 : 55 b/s

Count of elements                        : 689

Stream size                              : 20.5 KiB (0%)

Title                                    : English

Language                                 : English

Default                                  : Yes

Forced                                   : Yes



Loki.S01E01.Episode.01.2021.2Download Torrent Magnet

#LokiS01E01Episode0120212