Loki 2021 S01E01 720p WEB-DL Full Torrent Magnet Download

Download Torrent Loki 2021 S01E01 720p WEB-DL Movie Full in HD Result. Movie Loki 2021 S01E01 720p WEB-DL Torrent Download full. Movie Loki 2021 S01E01 720p WEB-DL torrent Magnet Download Full. Loki 2021 S01E01 720p WEB-DL Full Movie Torrent Download And Magnet Download For your PC And Mobiles. Latest Movie Loki 2021 S01E01 720p WEB-DL Download Link In Bottom.

Torrent And Magnet Links Below

Loki 2021 S01E01 720p WEB-DL HIN-ENG DDP5.1 H265 – SunGeorge

Quote:

Loki 2021 S01E01 720p WEB-DL HIN-ENG DDP5.1 H265 – SunGeorge



Code:

General

Complete name : Loki.S01E01.720p.DSNP.HIN-ENG.WEB-DL.DDP5.1.Atmos.H.264.mkv

Format : Matroska

Format version : Version 4

File size : 1.31 GiB

Duration : 50 min 19 s

Overall bit rate mode : Variable

Overall bit rate : 3 733 kb/s

Encoded date : UTC 2021-06-09 07:16:42

Writing application : mkvmerge v57.0.0 (‘Till The End’) 64-bit

Writing library : libebml v1.4.2 + libmatroska v1.6.4 / Lavf58.29.100

Video

ID : 1

Format : AVC

Format/Info : Advanced Video Codec

Format profile : [email protected]
Format settings : CABAC / 4 Ref Frames

Format settings, CABAC : Yes

Format settings, Reference frames : 4 frames

Codec ID : V_MPEG4/ISO/AVC

Duration : 50 min 19 s

Bit rate mode : Variable

Bit rate : 2 770 kb/s

Maximum bit rate : 6 375 kb/s

Width : 1 280 pixels

Height : 720 pixels

Display aspect ratio : 16:9

Frame rate mode : Constant

Frame rate : 24.000 FPS

Color space : YUV

Chroma subsampling : 4:2:0

Bit depth : 8 bits

Scan type : Progressive

Bits/(Pixel*Frame) : 0.125

Stream size : 997 MiB (74%)

Default : Yes

Forced : No

Color range : Limited

Color primaries : BT.709

Transfer characteristics : BT.709

Matrix coefficients : BT.709

Audio #1

ID : 2

Format : E-AC-3

Format/Info : Enhanced AC-3

Commercial name : Dolby Digital Plus

Codec ID : A_EAC3

Duration : 50 min 19 s

Bit rate mode : Constant

Bit rate : 192 kb/s

Channel(s) : 6 channels

Channel layout : L R C LFE Ls Rs

Sampling rate : 48.0 kHz

Frame rate : 31.250 FPS (1536 SPF)

Compression mode : Lossy

Delay relative to video : 8 ms

Stream size : 69.1 MiB (5%)

Title : Hindi

Language : Hindi

Service kind : Complete Main

Default : No

Forced : No

Audio #2

ID : 3

Format : E-AC-3 JOC

Format/Info : Enhanced AC-3 with Joint Object Coding

Commercial name : Dolby Digital Plus with Dolby Atmos

Codec ID : A_EAC3

Duration : 50 min 19 s

Bit rate mode : Constant

Bit rate : 768 kb/s

Channel(s) : 6 channels

Channel layout : L R C LFE Ls Rs

Sampling rate : 48.0 kHz

Frame rate : 31.250 FPS (1536 SPF)

Compression mode : Lossy

Stream size : 276 MiB (21%)

Title : English

Language : English

Service kind : Complete Main

Default : Yes

Forced : No

Complexity index : 16

Number of dynamic objects : 15

Bed channel count : 1 channel

Bed channel configuration : LFE

Text #1

ID : 4

Format : UTF-8

Codec ID : S_TEXT/UTF8

Codec ID/Info : UTF-8 Plain Text

Duration : 50 min 5 s

Bit rate : 55 b/s

Count of elements : 688

Stream size : 20.4 KiB (0%)

Title : English (SDH)

Language : English

Default : No

Forced : No

Text #2

ID : 5

Format : UTF-8

Codec ID : S_TEXT/UTF8

Codec ID/Info : UTF-8 Plain Text

Duration : 50 min 6 s

Bit rate : 45 b/s

Count of elements : 409

Stream size : 16.6 KiB (0%)

Title : Dansk

Language : Danish

Default : No

Forced : No

Text #3

ID : 6

Format : UTF-8

Codec ID : S_TEXT/UTF8

Codec ID/Info : UTF-8 Plain Text

Duration : 50 min 6 s

Bit rate : 46 b/s

Count of elements : 558

Stream size : 17.2 KiB (0%)

Title : Deutsch

Language : German

Default : No

Forced : No

Text #4

ID : 7

Format : UTF-8

Codec ID : S_TEXT/UTF8

Codec ID/Info : UTF-8 Plain Text

Duration : 50 min 13 s

Bit rate : 49 b/s

Count of elements : 574

Stream size : 18.0 KiB (0%)

Title : Español (Latinoamérica)

Language : Spanish

Default : No

Forced : No

Text #5

ID : 8

Format : UTF-8

Codec ID : S_TEXT/UTF8

Codec ID/Info : UTF-8 Plain Text

Duration : 50 min 13 s

Bit rate : 48 b/s

Count of elements : 573

Stream size : 17.9 KiB (0%)

Title : Español

Language : Spanish

Default : No

Forced : No

Text #6

ID : 9

Format : UTF-8

Codec ID : S_TEXT/UTF8

Codec ID/Info : UTF-8 Plain Text

Duration : 50 min 6 s

Bit rate : 42 b/s

Count of elements : 573

Stream size : 15.6 KiB (0%)

Title : Suomi

Language : Finnish

Default : No

Forced : No

Text #7

ID : 10

Format : UTF-8

Codec ID : S_TEXT/UTF8

Codec ID/Info : UTF-8 Plain Text

Duration : 50 min 5 s

Bit rate : 42 b/s

Count of elements : 542

Stream size : 15.7 KiB (0%)

Title : Français (Canada)

Language : French

Default : No

Forced : No

Text #8

ID : 11

Format : UTF-8

Codec ID : S_TEXT/UTF8

Codec ID/Info : UTF-8 Plain Text

Duration : 50 min 6 s

Bit rate : 42 b/s

Count of elements : 538

Stream size : 15.6 KiB (0%)

Title : Français

Language : French

Default : No

Forced : No

Text #9

ID : 12

Format : UTF-8

Codec ID : S_TEXT/UTF8

Codec ID/Info : UTF-8 Plain Text

Duration : 50 min 6 s

Bit rate : 46 b/s

Count of elements : 573

Stream size : 17.1 KiB (0%)

Title : Italiano

Language : Italian

Default : No

Forced : No

Text #10

ID : 13

Format : UTF-8

Codec ID : S_TEXT/UTF8

Codec ID/Info : UTF-8 Plain Text

Duration : 50 min 6 s

Bit rate : 41 b/s

Count of elements : 573

Stream size : 15.4 KiB (0%)

Title : Norsk Bokmål

Language : Norwegian Bokmal

Default : No

Forced : No

Text #11

ID : 14

Format : UTF-8

Codec ID : S_TEXT/UTF8

Codec ID/Info : UTF-8 Plain Text

Duration : 50 min 6 s

Bit rate : 47 b/s

Count of elements : 476

Stream size : 17.6 KiB (0%)

Title : Nederlands

Language : Dutch

Default : No

Forced : No

Text #12

ID : 15

Format : UTF-8

Codec ID : S_TEXT/UTF8

Codec ID/Info : UTF-8 Plain Text

Duration : 50 min 13 s

Bit rate : 50 b/s

Count of elements : 574

Stream size : 18.7 KiB (0%)

Title : Português (Brasil)

Language : Portuguese

Default : No

Forced : No

Text #13

ID : 16

Format : UTF-8

Codec ID : S_TEXT/UTF8

Codec ID/Info : UTF-8 Plain Text

Duration : 50 min 13 s

Bit rate : 48 b/s

Count of elements : 577

Stream size : 17.9 KiB (0%)

Title : Português

Language : Portuguese

Default : No

Forced : No

Text #14

ID : 17

Format : UTF-8

Codec ID : S_TEXT/UTF8

Codec ID/Info : UTF-8 Plain Text

Duration : 50 min 6 s

Bit rate : 47 b/s

Count of elements : 497

Stream size : 17.5 KiB (0%)

Title : Svenska

Language : Swedish

Default : No

Forced : No

Text #15

ID : 18

Format : UTF-8

Codec ID : S_TEXT/UTF8

Codec ID/Info : UTF-8 Plain Text

Duration : 50 min 13 s

Bit rate : 45 b/s

Count of elements : 578

Stream size : 16.8 KiB (0%)

Title : 中文(简体)

Language : Chinese

Default : No

Forced : No

Text #16

ID : 19

Format : UTF-8

Codec ID : S_TEXT/UTF8

Codec ID/Info : UTF-8 Plain Text

Duration : 50 min 13 s

Bit rate : 38 b/s

Count of elements : 579

Stream size : 14.1 KiB (0%)

Title : 中文(繁體,中國香港特別行政區)

Language : Chinese

Default : No

Forced : No

Loki 2021 S01E01 720p WEB-DL Download Torrent Magnet

#Loki #S01E01 #720p #WEBDL