Lions.for.Lambs.2007.BRRip.Xv Full Torrent Magnet Download

Download Torrent Lions.for.Lambs.2007.BRRip.Xv Movie Full in HD Result. Movie Lions.for.Lambs.2007.BRRip.Xv Torrent Download full. Movie Lions.for.Lambs.2007.BRRip.Xv torrent Magnet Download Full. Lions.for.Lambs.2007.BRRip.Xv Full Movie Torrent Download And Magnet Download For your PC And Mobiles. Latest Movie Lions.for.Lambs.2007.BRRip.Xv Download Link In Bottom.

Torrent And Magnet Links Below

Lions.for.Lambs.2007.BRRip.XviD.B4ND1T69

Director: Robert Redford

Writer: Matthew Michael Carnahan

Stars: Tom Cruise, Meryl Streep, Robert Redford

Plot/Story:

Injuries sustained by two Army rangers behind enemy lines in Afghanistan set off a sequence of events involving a congressman, a journalist and a professor.

General

Complete name : Lions.for.Lambs.2007.BRRip.XviD.B4ND1T69.avi

Format : AVI

Format/Info : Audio Video Interleave

File size : 774 MiB

Duration : 1 h 31 min

Overall bit rate : 1 180 kb/s

Subtitles : Yes…Included(HI)

Video

ID : 0

Format : MPEG-4 Visual

Format profile : Advanced [email protected]
Format settings, BVOP : 2

Format settings, QPel : No

Format settings, GMC : No warppoints

Format settings, Matrix : Default (H.263)

Codec ID : XVID

Codec ID/Hint : XviD

Duration : 1 h 31 min

Bit rate : 1 039 kb/s

Width : 720 pixels

Height : 304 pixels

Display aspect ratio : 2.35:1

Frame rate : 23.976 (24000/1001) FPS

Color space : YUV

Chroma subsampling : 4:2:0

Bit depth : 8 bits

Scan type : Progressive

Compression mode : Lossy

Bits/(Pixel*Frame) : 0.198

Stream size : 681 MiB (88%)

Writing library : XviD 64

Audio

ID : 1

Format : MPEG Audio

Format version : Version 1

Format profile : Layer 3

Codec ID : 55

Codec ID/Hint : MP3

Duration : 1 h 31 min

Bit rate mode : Constant

Bit rate : 128 kb/s

Channel(s) : 2 channels

Sampling rate : 48.0 kHz

Compression mode : Lossy

Stream size : 84.0 MiB (11%)

Alignment : Aligned on interleaves

Interleave, duration : 24 ms (0.58 video frame)

Screenshots:









Please Seed For As Long As Possible

Or At Least 1:1 Ratio…Thanks

Enjoy Peeps

Lions.for.Lambs.2007.BRRip.XvDownload Torrent Magnet

#LionsforLambs2007BRRipXv