Light Sleeper 1992 1080p BULU Full Torrent Magnet Download

Download Torrent Light Sleeper 1992 1080p BULU Movie Full in HD Result. Movie Light Sleeper 1992 1080p BULU Torrent Download full. Movie Light Sleeper 1992 1080p BULU torrent Magnet Download Full. Light Sleeper 1992 1080p BULU Full Movie Torrent Download And Magnet Download For your PC And Mobiles. Latest Movie Light Sleeper 1992 1080p BULU Download Link In Bottom.

Torrent And Magnet Links Below

Light Sleeper 1992 1080p BULURAY REMUX AVC PCM 4.1-iCMAL [TGx]

Parents Guide

Jump to: Certification Sex & Nudity (3) Violence & Gore (1) Profanity (1) Alcohol, Drugs & Smoking (2) Frightening & Intense Scenes (0) Spoilers (4)

Certification

MPAA Rated R for strong language and drug content, and for violence and a scene of sensuality

Certification

Australia:M Canada:14A (Canadian Home Video) Finland:K-16 France:16 Germany:16 Iceland:16 Italy:T Norway:15 (1992, cinema rating) Portugal:M/16 South Korea:18 Spain:18 United Kingdom:15 United States:R (certificate #31539)

A drug dealer reconsiders his profession when his boss plans to go straight and an old flame reappears.

Director: Paul Schrader

Writer: Paul Schrader

Stars: Willem Dafoe, Susan Sarandon, Dana Delany

Storyline

A drug dealer with upscale clientele is having moral problems going about his daily deliveries. A reformed addict, he has never gotten over the wife that left him, and the couple that use him for deliveries worry about his mental well-being and his effectiveness at his job. Meanwhile someone is killing women in apparently drug-related incidents. Written by Ed Sutton


Format : Matroska

Format version : Version 4

File size : 26.0 GiB

Duration : 1 h 43 min

Overall bit rate mode : Variable

Overall bit rate : 36.0 Mb/s

Movie name : Light Sleeper 1992 1080p BULURAY REMUX AVC PCM 4.1 – iCMAL

Encoded date : UTC 2021-01-30 23:32:16

Writing application : mkvmerge v10.0.0 (‘To Drown In You’) 64bit

Writing library : libebml v1.3.4 + libmatroska v1.4.5

Video

ID : 1

Format : AVC

Format/Info : Advanced Video Codec

Format profile : [email protected]
Format settings : CABAC / 3 Ref Frames

Format settings, CABAC : Yes

Format settings, Reference frames : 3 frames

Codec ID : V_MPEG4/ISO/AVC

Duration : 1 h 43 min

Bit rate mode : Variable

Bit rate : 34.8 Mb/s

Maximum bit rate : 38.0 Mb/s

Width : 1 920 pixels

Height : 1 080 pixels

Display aspect ratio : 16:9

Frame rate mode : Constant

Frame rate : 23.976 (24000/1001) FPS

Color space : YUV

Chroma subsampling : 4:2:0

Bit depth : 8 bits

Scan type : Progressive

Bits/(Pixel*Frame) : 0.700

Stream size : 25.1 GiB (97%)

Title : REMUX BY iCMAL

Default : Yes

Forced : No

Color range : Limited

Color primaries : BT.709

Transfer characteristics : BT.709

Matrix coefficients : BT.709

Audio

ID : 2

Format : PCM

Format settings : Little / Signed

Codec ID : A_PCM/INT/LIT

Duration : 1 h 43 min

Bit rate mode : Constant

Bit rate : 1 152 kb/s

Channel(s) : 1 channel

Sampling rate : 48.0 kHz

Frame rate : 200.000 FPS (240 SPF)

Bit depth : 24 bits

Stream size : 852 MiB (3%)

Title : REMUX BY iCMAL

Language : English

Default : Yes

Forced : No

Text

ID : 3

Format : PGS

Muxing mode : zlib

Codec ID : S_HDMV/PGS

Codec ID/Info : Picture based subtitle format used on BDs/HD-DVDs

Duration : 1 h 42 min

Bit rate : 15.0 kb/s

Count of elements : 2812

Stream size : 11.0 MiB (0%)

Title : REMUX BY iCMAL

Language : English

Default : Yes

Forced : No

Light Sleeper 1992 1080p BULUDownload Torrent Magnet

#Light #Sleeper #1080p #BULU