Life In A Year 2020 x264 720p Full Torrent Magnet Download

Download Torrent Life In A Year 2020 x264 720p Movie Full in HD Result. Movie Life In A Year 2020 x264 720p Torrent Download full. Movie Life In A Year 2020 x264 720p torrent Magnet Download Full. Life In A Year 2020 x264 720p Full Movie Torrent Download And Magnet Download For your PC And Mobiles. Latest Movie Life In A Year 2020 x264 720p Download Link In Bottom.

Torrent And Magnet Links Below

Greets

Admin , Moderator , Noir, Ex0duS5150, theeshiznit, MisterQ, KiNs, UserHEVC, miok, Silmarillion, Mr. Blue, MaDHeX and many more ;

Life In A Year 2020 x264 720p WebHD Esub Dual Audio English Hindi GOPI SAHI

Format                         : Matroska

Format version                 : Version 4

File size                      : 840 MiB

Duration                       : 1 h 47 min

Overall bit rate               : 1 094 kb/s

Movie name                     : Life In A Year 2020 GOPI SAHI

Encoded date                   : UTC 2021-02-15 04:14:25

Video

ID                             : 1

Format                         : AVC

Format/Info                    : Advanced Video Codec

Format profile                 : [email protected]
Format settings                : CABAC / 5 Ref Frames

Format settings, CABAC         : Yes

Format settings, Reference fra : 5 frames

Codec ID                       : V_MPEG4/ISO/AVC

Duration                       : 1 h 47 min

Bit rate                       : 899 kb/s

Width                          : 1 280 pixels

Height                         : 534 pixels

Display aspect ratio           : 2.40:1

Frame rate mode                : Constant

Frame rate                     : 23.976 (24000/1001) FPS

Color space                    : YUV

Chroma subsampling             : 4:2:0

Bit depth                      : 8 bits

Scan type                      : Progressive

Bits/(Pixel*Frame)             : 0.055

Stream size                    : 690 MiB (82%)

Title                          : GOPI SAHI

Writing library                : x264 core 157 r2935 545de2f

Audio #1

ID                             : 2

Format                         : AAC LC

Format/Info                    : Advanced Audio Codec Low Complexity

Codec ID                       : A_AAC-2

Duration                       : 1 h 47 min

Bit rate                       : 96.0 kb/s

Channel(s)                     : 2 channels

Channel layout                 : L R

Sampling rate                  : 48.0 kHz

Frame rate                     : 46.875 FPS (1024 SPF)

Compression mode               : Lossy

Delay relative to video        : -21 ms

Stream size                    : 73.8 MiB (9%)

Title                          : GOPI SAHI

Language                       : Hindi

Default                        : Yes

Forced                         : No

Audio #2

ID                             : 3

Format                         : AAC LC

Format/Info                    : Advanced Audio Codec Low Complexity

Codec ID                       : A_AAC-2

Duration                       : 1 h 47 min

Bit rate                       : 96.0 kb/s

Channel(s)                     : 2 channels

Channel layout                 : L R

Sampling rate                  : 48.0 kHz

Frame rate                     : 46.875 FPS (1024 SPF)

Compression mode               : Lossy

Delay relative to video        : -21 ms

Stream size                    : 73.9 MiB (9%)

Title                          : GOPI SAHI

Language                       : English

Default                        : No

Forced                         : No

Text

Language                       : English

Life In A Year 2020 x264 720pDownload Torrent Magnet

#Life #Year #x264 #720p