Let.Him.Go.2020.1080p.BluRay. Full Torrent Magnet Download

Download Torrent Let.Him.Go.2020.1080p.BluRay. Movie Full in HD Result. Movie Let.Him.Go.2020.1080p.BluRay. Torrent Download full. Movie Let.Him.Go.2020.1080p.BluRay. torrent Magnet Download Full. Let.Him.Go.2020.1080p.BluRay. Full Movie Torrent Download And Magnet Download For your PC And Mobiles. Latest Movie Let.Him.Go.2020.1080p.BluRay. Download Link In Bottom.

Torrent And Magnet Links Below

https://www.imdb.com/title/tt9340860/

Code:

Video

ID : 1

Format : AVC

Format/Info : Advanced Video Codec

Format profile : [email protected]
Format settings : CABAC / 4 Ref Frames

Format settings, CABAC : Yes

Format settings, Reference frames : 4 frames

Codec ID : V_MPEG4/ISO/AVC

Duration : 1 h 53 min

Bit rate : 11.5 Mb/s

Width : 1 920 pixels

Height : 804 pixels

Display aspect ratio : 2.40:1

Frame rate mode : Constant

Frame rate : 23.976 (24000/1001) FPS

Color space : YUV

Chroma subsampling : 4:2:0

Bit depth : 8 bits

Scan type : Progressive

Bits/(Pixel*Frame) : 0.311

Stream size : 9.13 GiB (72%)

Writing library : x264 core 148 r2748 97eaef2

Encoding settings : cabac=1 / ref=4 / deblock=1:-2:-2 / analyse=0x3:0x113 / me=umh / subme=9 / psy=1 / psy_rd=1.00:0.15 / mixed_ref=1 / me_range=16 / chroma_me=1 / trellis=2 / 8x8dct=1 / cqm=0 / deadzone=21,11 / fast_pskip=1 / chroma_qp_offset=-3 / threads=72 / lookahead_threads=3 / sliced_threads=0 / nr=0 / decimate=1 / interlaced=0 / bluray_compat=0 / constrained_intra=0 / bframes=3 / b_pyramid=2 / b_adapt=1 / b_bias=0 / direct=3 / weightb=1 / open_gop=0 / weightp=2 / keyint=250 / keyint_min=25 / scenecut=40 / intra_refresh=0 / rc_lookahead=50 / rc=2pass / mbtree=1 / bitrate=11500 / ratetol=1.0 / qcomp=0.60 / qpmin=0 / qpmax=69 / qpstep=4 / cplxblur=20.0 / qblur=0.5 / vbv_maxrate=31250 / vbv_bufsize=31250 / nal_hrd=none / filler=0 / ip_ratio=1.40 / aq=1:1.00

Default : Yes

Forced : No

Audio

ID : 2

ID in the original source medium : 4352 (0x1100)

Format : DTS XLL

Format/Info : Digital Theater Systems

Commercial name : DTS-HD Master Audio

Codec ID : A_DTS

Duration : 1 h 53 min

Bit rate mode : Variable

Bit rate : 4 459 kb/s

Channel(s) : 8 channels

Channel layout : C L R LFE Lb Rb Lss Rss

Sampling rate : 48.0 kHz

Frame rate : 93.750 FPS (512 SPF)

Bit depth : 24 bits

Compression mode : Lossless

Stream size : 3.54 GiB (28%)

Title : DTS-HD MA 7.1

Language : English

Default : Yes

Forced : No

Original source medium : Blu-ray

Text #1

ID : 3

Format : UTF-8

Codec ID : S_TEXT/UTF8

Codec ID/Info : UTF-8 Plain Text

Duration : 1 h 45 min

Bit rate : 41 b/s

Count of elements : 1103

Stream size : 32.0 KiB (0%)

Title : English-SRT

Language : English

Default : Yes

Forced : No

Text #2

ID : 4

ID in the original source medium : 4608 (0x1200)

Format : PGS

Muxing mode : zlib

Codec ID : S_HDMV/PGS

Codec ID/Info : Picture based subtitle format used on BDs/HD-DVDs

Duration : 1 h 45 min

Bit rate : 32.5 kb/s

Count of elements : 2480

Stream size : 24.6 MiB (0%)

Title : English-PGS

Language : English

Default : No

Forced : No

Original source medium : Blu-ray

Text #3

ID : 5

ID in the original source medium : 4609 (0x1201)

Format : PGS

Muxing mode : zlib

Codec ID : S_HDMV/PGS

Codec ID/Info : Picture based subtitle format used on BDs/HD-DVDs

Duration : 1 h 52 min

Bit rate : 27.9 kb/s

Count of elements : 2400

Stream size : 22.6 MiB (0%)

Title : Spanish-PGS

Language : Spanish

Default : No

Forced : No

Original source medium : Blu-ray

Text #4

ID : 6

ID in the original source medium : 4610 (0x1202)

Format : PGS

Muxing mode : zlib

Codec ID : S_HDMV/PGS

Codec ID/Info : Picture based subtitle format used on BDs/HD-DVDs

Duration : 1 h 52 min

Bit rate : 27.2 kb/s

Count of elements : 2254

Stream size : 22.0 MiB (0%)

Title : French-PGS

Language : French

Default : No

Forced : No

Original source medium : Blu-ray

Menu

00:00:00.000 : en:Chapter 01

00:06:05.448 : en:Chapter 02

00:12:56.734 : en:Chapter 03

00:18:12.049 : en:Chapter 04

00:23:22.734 : en:Chapter 05

00:29:00.238 : en:Chapter 06

00:34:42.246 : en:Chapter 07

00:38:45.656 : en:Chapter 08

00:42:19.453 : en:Chapter 09

00:45:53.584 : en:Chapter 10

00:53:16.318 : en:Chapter 11

00:58:57.242 : en:Chapter 12

01:06:27.316 : en:Chapter 13

01:12:55.245 : en:Chapter 14

01:19:46.573 : en:Chapter 15

01:23:43.351 : en:Chapter 16

01:31:51.172 : en:Chapter 17

01:40:26.562 : en:Chapter 18

01:45:31.450 : en:Chapter 19

01:47:58.305 : en:Chapter 20

Let.Him.Go.2020.1080p.BluRay.Download Torrent Magnet

#LetHimGo20201080pBluRay