Les trois mousquetaires [TV m Full Torrent Magnet Download

Download Torrent Les trois mousquetaires [TV m Movie Full in HD Result. Movie Les trois mousquetaires [TV m Torrent Download full. Movie Les trois mousquetaires [TV m torrent Magnet Download Full. Les trois mousquetaires [TV m Full Movie Torrent Download And Magnet Download For your PC And Mobiles. Latest Movie Les trois mousquetaires [TV m Download Link In Bottom.

Torrent And Magnet Links Below

IMDB

Code:


General

Complete name : Les.trois.mousquetaires.TV.movie.(1959).DVDrip.(720x576p).AC3.[Borsalino].RO.srt

Format : SubRip

File size : 140 KiB

Text

Format : SubRip

Compression mode : Lossless

General

Complete name : Les.trois.mousquetaires.TV.movie.(1959).DVDrip.(720x576p).AC3.[Borsalino].mkv
Format : Matroska

Format version : Version 4

File size : 4.01 GiB

Duration : 1 h 59 min

Overall bit rate mode : Variable

Overall bit rate : 4 794 kb/s

Movie name : Les.trois.mousquetaires.TV.movie.(1959).DVDrip.(720x576p).AC3.[Borsalino]
Writing application : mkvmerge v56.1.0 (‘My Friend’) 64-bit

Writing library : libebml v1.4.2 + libmatroska v1.6.4

Video

ID : 1

Format : MPEG Video

Format version : Version 2

Format profile : [email protected]
Format settings : BVOP

Format settings, BVOP : Yes

Format settings, Matrix : Default

Format settings, GOP : M=3, N=13

Format settings, picture structure : Frame

Codec ID : V_MPEG2

Codec ID/Info : MPEG 1 or 2 Video

Duration : 1 h 59 min

Bit rate mode : Variable

Bit rate : 4 600 kb/s

Maximum bit rate : 7 600 kb/s

Width : 720 pixels

Height : 576 pixels

Display aspect ratio : 4:3

Frame rate mode : Constant

Frame rate : 25.000 FPS

Standard : PAL

Color space : YUV

Chroma subsampling : 4:2:0

Bit depth : 8 bits

Scan type : Interlaced

Scan order : Top Field First

Compression mode : Lossy

Bits/(Pixel*Frame) : 0.444

Time code of first frame : 00:03:15:14

Time code source : Group of pictures header

GOP, Open/Closed : Open

Stream size : 3.84 GiB (96%)

Title : French

Language : French

Default : Yes

Forced : No

Color primaries : BT.601 PAL

Transfer characteristics : BT.470 System B/G

Matrix coefficients : BT.470 System B/G

Audio

ID : 2

Format : AC-3

Format/Info : Audio Coding 3

Commercial name : Dolby Digital

Codec ID : A_AC3

Duration : 1 h 59 min

Bit rate mode : Constant

Bit rate : 192 kb/s

Channel(s) : 2 channels

Channel layout : L R

Sampling rate : 48.0 kHz

Frame rate : 31.250 FPS (1536 SPF)

Compression mode : Lossy

Stream size : 164 MiB (4%)

Title : French

Language : French

Service kind : Complete Main

Default : Yes

Forced : No

Spoken language

Subtitles (srt files)







Les trois mousquetaires [TV mDownload Torrent Magnet

#Les #trois #mousquetaires