Les trois frères (1995) BluRa Full Torrent Magnet Download

Download Torrent Les trois frères (1995) BluRa Movie Full in HD Result. Movie Les trois frères (1995) BluRa Torrent Download full. Movie Les trois frères (1995) BluRa torrent Magnet Download Full. Les trois frères (1995) BluRa Full Movie Torrent Download And Magnet Download For your PC And Mobiles. Latest Movie Les trois frères (1995) BluRa Download Link In Bottom.

Torrent And Magnet Links Below

IMDB

Code:


General

Complete name : Les.trois.frères.(1995).BluRay.1080p.DTS.[Borsalino].EN.srt

Format : SubRip

File size : 154 KiB

Text

Format : SubRip

Compression mode : Lossless

General

Complete name : Les.trois.frères.(1995).BluRay.1080p.DTS.[Borsalino].FR.srt

Format : SubRip

File size : 176 KiB

Text

Format : SubRip

Compression mode : Lossless

General

Complete name : Les.trois.frères.(1995).BluRay.1080p.DTS.[Borsalino].mkv

Format : Matroska

Format version : Version 4

File size : 3.45 GiB

Duration : 1 h 49 min

Overall bit rate : 4 525 kb/s

Movie name : Les.trois.frères.(1995).BluRay.1080p.DTS.[Borsalino]
Writing application : mkvmerge v56.1.0 (‘My Friend’) 64-bit

Writing library : libebml v1.4.2 + libmatroska v1.6.4

Video

ID : 1

Format : AVC

Format/Info : Advanced Video Codec

Format profile : [email protected]
Format settings : CABAC / 4 Ref Frames

Format settings, CABAC : Yes

Format settings, Reference frames : 4 frames

Codec ID : V_MPEG4/ISO/AVC

Duration : 1 h 49 min

Bit rate : 3 000 kb/s

Width : 1 920 pixels

Height : 1 080 pixels

Display aspect ratio : 16:9

Frame rate mode : Constant

Frame rate : 23.976 (24000/1001) FPS

Color space : YUV

Chroma subsampling : 4:2:0

Bit depth : 8 bits

Scan type : Progressive

Bits/(Pixel*Frame) : 0.060

Stream size : 2.28 GiB (66%)

Title : French

Writing library : x264 core 148 r2721

Encoding settings : cabac=1 / ref=4 / deblock=1:0:0 / analyse=0x3:0x133 / me=umh / subme=8 / psy=1 / psy_rd=1.00:0.00 / mixed_ref=1 / me_range=16 / chroma_me=1 / trellis=0 / 8x8dct=1 / cqm=0 / deadzone=21,11 / fast_pskip=0 / chroma_qp_offset=-2 / threads=12 / lookahead_threads=3 / sliced_threads=0 / nr=0 / decimate=1 / interlaced=0 / bluray_compat=0 / constrained_intra=0 / bframes=5 / b_pyramid=2 / b_adapt=2 / b_bias=0 / direct=3 / weightb=1 / open_gop=0 / weightp=2 / keyint=250 / keyint_min=126 / scenecut=40 / intra_refresh=0 / rc_lookahead=50 / rc=2pass / mbtree=1 / bitrate=3000 / ratetol=1.0 / qcomp=0.60 / qpmin=10 / qpmax=51 / qpstep=4 / cplxblur=20.0 / qblur=0.5 / vbv_maxrate=24000 / vbv_bufsize=24000 / nal_hrd=none / filler=0 / ip_ratio=1.40 / aq=1:1.00

Language : French

Default : Yes

Forced : No

Audio

ID : 2

Format : DTS

Format/Info : Digital Theater Systems

Codec ID : A_DTS

Duration : 1 h 49 min

Bit rate mode : Constant

Bit rate : 1 509 kb/s

Channel(s) : 2 channels

Channel layout : L R

Sampling rate : 48.0 kHz

Frame rate : 93.750 FPS (512 SPF)

Bit depth : 24 bits

Compression mode : Lossy

Stream size : 1.15 GiB (33%)

Title : French

Language : French

Default : Yes

Forced : No

Text

ID : 3

Format : PGS

Muxing mode : zlib

Codec ID : S_HDMV/PGS

Codec ID/Info : Picture based subtitle format used on BDs/HD-DVDs

Duration : 1 h 48 min

Bit rate : 53.1 kb/s

Count of elements : 4451

Stream size : 41.3 MiB (1%)

Title : French

Language : French

Default : No

Forced : No

Spoken language

Subtitles (srt files)










Les trois frères (1995) BluRaDownload Torrent Magnet

#Les #trois #frères #BluRa