Les félins (1964) BluRay 720p Full Torrent Magnet Download

Download Torrent Les félins (1964) BluRay 720p Movie Full in HD Result. Movie Les félins (1964) BluRay 720p Torrent Download full. Movie Les félins (1964) BluRay 720p torrent Magnet Download Full. Les félins (1964) BluRay 720p Full Movie Torrent Download And Magnet Download For your PC And Mobiles. Latest Movie Les félins (1964) BluRay 720p Download Link In Bottom.

Torrent And Magnet Links Below

IMDB

Code:


General

Complete name : Les.félins.(1964).BluRay.720p.DTS.[Borsalino].DE.srt

Format : SubRip

File size : 66.1 KiB

Text

Format : SubRip

Compression mode : Lossless

General

Complete name : Les.félins.(1964).BluRay.720p.DTS.[Borsalino].EL.srt

Format : SubRip

File size : 70.3 KiB

Text

Format : SubRip

Compression mode : Lossless

General

Complete name : Les.félins.(1964).BluRay.720p.DTS.[Borsalino].EN.srt

Format : SubRip

File size : 63.3 KiB

Text

Format : SubRip

Compression mode : Lossless

General

Complete name : Les.félins.(1964).BluRay.720p.DTS.[Borsalino].ES.srt

Format : SubRip

File size : 67.4 KiB

Text

Format : SubRip

Compression mode : Lossless

General

Complete name : Les.félins.(1964).BluRay.720p.DTS.[Borsalino].mkv

Format : Matroska

Format version : Version 4

File size : 5.10 GiB

Duration : 1 h 37 min

Overall bit rate : 7 512 kb/s

Movie name : Les.félins.(1964).BluRay.720p.DTS.[Borsalino]
Writing application : mkvmerge v56.1.0 (‘My Friend’) 64-bit

Writing library : libebml v1.4.2 + libmatroska v1.6.4

Video

ID : 1

Format : AVC

Format/Info : Advanced Video Codec

Format profile : [email protected]
Format settings : CABAC / 12 Ref Frames

Format settings, CABAC : Yes

Format settings, Reference frames : 12 frames

Codec ID : V_MPEG4/ISO/AVC

Duration : 1 h 37 min

Bit rate : 6 000 kb/s

Width : 1 280 pixels

Height : 544 pixels

Display aspect ratio : 2.35:1

Frame rate mode : Constant

Frame rate : 24.000 FPS

Color space : YUV

Chroma subsampling : 4:2:0

Bit depth : 8 bits

Scan type : Progressive

Bits/(Pixel*Frame) : 0.359

Stream size : 4.08 GiB (80%)

Title : French

Writing library : x264 core 157 r2969 d4099dd

Encoding settings : cabac=1 / ref=12 / deblock=1:-3:-3 / analyse=0x3:0x133 / me=umh / subme=10 / psy=1 / psy_rd=1.00:0.00 / mixed_ref=1 / me_range=32 / chroma_me=1 / trellis=2 / 8x8dct=1 / cqm=0 / deadzone=21,11 / fast_pskip=1 / chroma_qp_offset=-2 / threads=6 / lookahead_threads=1 / sliced_threads=0 / nr=10 / decimate=1 / interlaced=0 / bluray_compat=0 / constrained_intra=0 / bframes=5 / b_pyramid=2 / b_adapt=2 / b_bias=0 / direct=3 / weightb=1 / open_gop=0 / weightp=2 / keyint=240 / keyint_min=24 / scenecut=40 / intra_refresh=0 / rc_lookahead=60 / rc=2pass / mbtree=1 / bitrate=6000 / ratetol=1.0 / qcomp=0.60 / qpmin=0 / qpmax=69 / qpstep=4 / cplxblur=20.0 / qblur=0.5 / vbv_maxrate=50000 / vbv_bufsize=50000 / nal_hrd=none / filler=0 / ip_ratio=1.40 / aq=1:1.00

Language : French

Default : Yes

Forced : No

Color range : Limited

Color primaries : BT.709

Transfer characteristics : BT.709

Matrix coefficients : BT.709

Audio

ID : 2

Format : DTS

Format/Info : Digital Theater Systems

Codec ID : A_DTS

Duration : 1 h 37 min

Bit rate mode : Constant

Bit rate : 1 509 kb/s

Channel(s) : 2 channels

Channel layout : L R

Sampling rate : 48.0 kHz

Frame rate : 93.750 FPS (512 SPF)

Bit depth : 24 bits

Compression mode : Lossy

Stream size : 1.03 GiB (20%)

Title : French

Language : French

Default : Yes

Forced : No

Text

ID : 3

Format : UTF-8

Codec ID : S_TEXT/UTF8

Codec ID/Info : UTF-8 Plain Text

Duration : 1 h 27 min

Bit rate : 1 b/s

Count of elements : 30

Stream size : 904 Bytes (0%)

Title : French

Language : French

Default : Yes

Forced : Yes

Spoken language

Subtitles (srt files)











Les félins (1964) BluRay 720pDownload Torrent Magnet

#Les #félins #BluRay #720p