Les distractions (1960) DVDRi Full Torrent Magnet Download

Download Torrent Les distractions (1960) DVDRi Movie Full in HD Result. Movie Les distractions (1960) DVDRi Torrent Download full. Movie Les distractions (1960) DVDRi torrent Magnet Download Full. Les distractions (1960) DVDRi Full Movie Torrent Download And Magnet Download For your PC And Mobiles. Latest Movie Les distractions (1960) DVDRi Download Link In Bottom.

Torrent And Magnet Links Below

IMDB

Code:


General

Complete name : Les.distractions.(1960).DVDRip.(704x400p).AC3.[Borsalino].mkv

Format : Matroska

Format version : Version 4

File size : 1.25 GiB

Duration : 1 h 24 min

Overall bit rate : 2 128 kb/s

Movie name : Les.distractions.(1960).DVDRip.(704x400p).AC3.[Borsalino]
Writing application : mkvmerge v56.1.0 (‘My Friend’) 64-bit

Writing library : libebml v1.4.2 + libmatroska v1.6.4

Video

ID : 1

Format : MPEG-4 Visual

Format profile : Advanced [email protected]
Format settings : BVOP1 / Custom Matrix

Format settings, BVOP : 1

Format settings, QPel : No

Format settings, GMC : No warppoints

Format settings, Matrix : Custom

Codec ID : V_MS/VFW/FOURCC / XVID

Codec ID/Hint : XviD

Duration : 1 h 24 min

Bit rate : 1 934 kb/s

Width : 704 pixels

Height : 400 pixels

Display aspect ratio : 16:9

Frame rate mode : Constant

Frame rate : 25.000 FPS

Color space : YUV

Chroma subsampling : 4:2:0

Bit depth : 8 bits

Scan type : Progressive

Compression mode : Lossy

Bits/(Pixel*Frame) : 0.275

Stream size : 1.14 GiB (91%)

Title : French

Writing library : XviD 1.2.1 (UTC 2008-12-04)

Language : French

Default : Yes

Forced : No

Audio

ID : 2

Format : AC-3

Format/Info : Audio Coding 3

Commercial name : Dolby Digital

Codec ID : A_AC3

Duration : 1 h 24 min

Bit rate mode : Constant

Bit rate : 192 kb/s

Channel(s) : 2 channels

Channel layout : L R

Sampling rate : 48.0 kHz

Frame rate : 31.250 FPS (1536 SPF)

Compression mode : Lossy

Stream size : 116 MiB (9%)

Title : French

Language : French

Service kind : Complete Main

Default : Yes

Forced : No

Spoken language

Subtitles (srt files)

None






Les distractions (1960) DVDRiDownload Torrent Magnet

#Les #distractions #DVDRi