Les copains du dimanche (1958 Full Torrent Magnet Download

Download Torrent Les copains du dimanche (1958 Movie Full in HD Result. Movie Les copains du dimanche (1958 Torrent Download full. Movie Les copains du dimanche (1958 torrent Magnet Download Full. Les copains du dimanche (1958 Full Movie Torrent Download And Magnet Download For your PC And Mobiles. Latest Movie Les copains du dimanche (1958 Download Link In Bottom.

Torrent And Magnet Links Below

IMDB

Code:


General

Complete name : Les.copains.du dimanche.(1958).TVrip.(492x360p).AAC.[Borsalino]Les.copains.du dimanche.(1958).TVrip.(492x360p).AAC.[Borsalino].RU.srt

Format : SubRip

File size : 109 KiB

Text

Format : SubRip

Compression mode : Lossless

General

Complete name : Les.copains.du dimanche.(1958).TVrip.(492x360p).AAC.[Borsalino]Les.copains.du dimanche.(1958).TVrip.(492x360p).AAC.[Borsalino].mkv

Format : Matroska

Format version : Version 4

File size : 373 MiB

Duration : 1 h 20 min

Overall bit rate : 646 kb/s

Movie name : Les.copains.du dimanche.(1956).TVrip.(492x360p).AAC.[Borsalino]
Writing application : mkvmerge v56.1.0 (‘My Friend’) 64-bit

Writing library : libebml v1.4.2 + libmatroska v1.6.4

Video

ID : 1

Format : AVC

Format/Info : Advanced Video Codec

Format profile : [email protected]
Format settings : CABAC / 4 Ref Frames

Format settings, CABAC : Yes

Format settings, Reference frames : 4 frames

Codec ID : V_MPEG4/ISO/AVC

Duration : 1 h 20 min

Bit rate : 579 kb/s

Width : 492 pixels

Height : 360 pixels

Display aspect ratio : 4:3

Frame rate mode : Constant

Frame rate : 25.000 FPS

Color space : YUV

Chroma subsampling : 4:2:0

Bit depth : 8 bits

Scan type : Progressive

Bits/(Pixel*Frame) : 0.131

Stream size : 334 MiB (90%)

Title : French

Language : French

Default : Yes

Forced : No

Audio

ID : 2

Format : AAC LC

Format/Info : Advanced Audio Codec Low Complexity

Codec ID : A_AAC-2

Duration : 1 h 20 min

Bit rate : 66.2 kb/s

Channel(s) : 2 channels

Channel layout : L R

Sampling rate : 44.1 kHz

Frame rate : 43.066 FPS (1024 SPF)

Compression mode : Lossy

Stream size : 37.8 MiB (10%)

Title : French

Language : French

Default : Yes

Forced : No

General

Complete name : Les.copains.du.dimanche.(1958).DVDrip.(720x576p).BQ.AC3.[Borsalino]Les.copains.du.dimanche.(1958).DVDrip.(720x576p).BQ.AC3.[Borsalino].RU.srt

Format : SubRip

File size : 109 KiB

Text

Format : SubRip

Compression mode : Lossless

General

Complete name : Les.copains.du.dimanche.(1958).DVDrip.(720x576p).BQ.AC3.[Borsalino]Les.copains.du.dimanche.(1958).DVDrip.(720x576p).BQ.AC3.[Borsalino].mkv

Format : Matroska

Format version : Version 4

File size : 4.98 GiB

Duration : 1 h 20 min

Overall bit rate mode : Variable

Overall bit rate : 8 855 kb/s

Movie name : Les.copains.du.dimanche.(1958).DVDrip.(720x576p).BQ.AC3.[Borsalino]
Writing application : mkvmerge v56.1.0 (‘My Friend’) 64-bit

Writing library : libebml v1.4.2 + libmatroska v1.6.4

Video

ID : 1

Format : MPEG Video

Format version : Version 2

Format profile : [email protected]
Format settings : CustomMatrix / BVOP

Format settings, BVOP : Yes

Format settings, Matrix : Custom

Format settings, GOP : M=3, N=12

Format settings, picture structure : Frame

Codec ID : V_MPEG2

Codec ID/Info : MPEG 1 or 2 Video

Duration : 1 h 20 min

Bit rate mode : Variable

Bit rate : 8 730 kb/s

Width : 720 pixels

Height : 576 pixels

Display aspect ratio : 4:3

Frame rate mode : Constant

Frame rate : 25.000 FPS

Standard : PAL

Color space : YUV

Chroma subsampling : 4:2:0

Bit depth : 8 bits

Scan type : Interlaced

Scan order : Top Field First

Compression mode : Lossy

Bits/(Pixel*Frame) : 0.842

Time code of first frame : 09:59:59:20

Time code source : Group of pictures header

GOP, Open/Closed : Open

Stream size : 4.88 GiB (98%)

Title : French

Language : French

Default : Yes

Forced : No

Audio

ID : 2

Format : AC-3

Format/Info : Audio Coding 3

Commercial name : Dolby Digital

Codec ID : A_AC3

Duration : 1 h 20 min

Bit rate mode : Constant

Bit rate : 192 kb/s

Channel(s) : 2 channels

Channel layout : L R

Sampling rate : 48.0 kHz

Frame rate : 31.250 FPS (1536 SPF)

Compression mode : Lossy

Stream size : 111 MiB (2%)

Title : French

Language : French

Service kind : Complete Main

Default : Yes

Forced : No

Spoken language

Subtitles (srt files)






Les copains du dimanche (1958Download Torrent Magnet

#Les #copains #dimanche