Les Arnaud (1967) BluRay 720p Full Torrent Magnet Download

Download Torrent Les Arnaud (1967) BluRay 720p Movie Full in HD Result. Movie Les Arnaud (1967) BluRay 720p Torrent Download full. Movie Les Arnaud (1967) BluRay 720p torrent Magnet Download Full. Les Arnaud (1967) BluRay 720p Full Movie Torrent Download And Magnet Download For your PC And Mobiles. Latest Movie Les Arnaud (1967) BluRay 720p Download Link In Bottom.

Torrent And Magnet Links Below

IMDB

Code:


General

Complete name : Les.Arnaud.(1967).BluRay.720p.AAC.[Borsalino].mkv

Format : Matroska

Format version : Version 4

File size : 2.35 GiB

Duration : 1 h 33 min

Overall bit rate : 3 625 kb/s

Movie name : Les.Arnaud.(1967).BluRay.720p.AAC.[Borsalino]
Writing application : mkvmerge v56.1.0 (‘My Friend’) 64-bit

Writing library : libebml v1.4.2 + libmatroska v1.6.4

Video

ID : 1

Format : AVC

Format/Info : Advanced Video Codec

Format profile : [email protected]
Format settings : 3 Ref Frames

Format settings, CABAC : No

Format settings, Reference frames : 3 frames

Codec ID : V_MPEG4/ISO/AVC

Duration : 1 h 33 min

Bit rate : 3 500 kb/s

Width : 1 280 pixels

Height : 720 pixels

Display aspect ratio : 16:9

Frame rate mode : Variable

Frame rate : 30.000 FPS

Color space : YUV

Chroma subsampling : 4:2:0

Bit depth : 8 bits

Scan type : Progressive

Bits/(Pixel*Frame) : 0.127

Stream size : 2.27 GiB (96%)

Title : French

Writing library : x264 core 157

Encoding settings : cabac=0 / ref=3 / deblock=1:0:0 / analyse=0x3:0x113 / me=umh / subme=8 / psy=1 / psy_rd=1.00:0.00 / mixed_ref=1 / me_range=16 / chroma_me=1 / trellis=1 / 8x8dct=1 / cqm=0 / deadzone=21,11 / fast_pskip=1 / chroma_qp_offset=-2 / threads=22 / lookahead_threads=3 / sliced_threads=0 / nr=0 / decimate=1 / interlaced=0 / bluray_compat=0 / constrained_intra=0 / bframes=0 / weightp=2 / keyint=90 / keyint_min=9 / scenecut=40 / intra_refresh=0 / rc_lookahead=40 / rc=2pass / mbtree=1 / bitrate=3500 / ratetol=1.0 / qcomp=0.60 / qpmin=0 / qpmax=69 / qpstep=4 / cplxblur=20.0 / qblur=0.5 / vbv_maxrate=4102 / vbv_bufsize=4102 / nal_hrd=none / filler=0 / ip_ratio=1.40 / aq=1:1.00

Language : French

Default : Yes

Forced : No

Audio

ID : 2

Format : AAC LC

Format/Info : Advanced Audio Codec Low Complexity

Codec ID : A_AAC-2

Duration : 1 h 33 min

Bit rate : 128 kb/s

Channel(s) : 2 channels

Channel layout : L R

Sampling rate : 44.1 kHz

Frame rate : 43.066 FPS (1024 SPF)

Compression mode : Lossy

Stream size : 85.2 MiB (4%)

Title : French

Language : French

Default : Yes

Forced : No

Spoken language

Subtitles (srt files)

None











Les Arnaud (1967) BluRay 720pDownload Torrent Magnet

#Les #Arnaud #BluRay #720p