Les Acteurs (2000) DVDrip 108 Full Torrent Magnet Download

Download Torrent Les Acteurs (2000) DVDrip 108 Movie Full in HD Result. Movie Les Acteurs (2000) DVDrip 108 Torrent Download full. Movie Les Acteurs (2000) DVDrip 108 torrent Magnet Download Full. Les Acteurs (2000) DVDrip 108 Full Movie Torrent Download And Magnet Download For your PC And Mobiles. Latest Movie Les Acteurs (2000) DVDrip 108 Download Link In Bottom.

Torrent And Magnet Links Below

IMDB

Code:


General

Complete name : Les.Acteurs.(2000).DVDrip.1080p.AAC.[Borsalino].EN.srt

Format : SubRip

File size : 113 KiB

Text

Format : SubRip

Compression mode : Lossless

General

Complete name : Les.Acteurs.(2000).DVDrip.1080p.AAC.[Borsalino].ES.srt

Format : SubRip

File size : 113 KiB

Text

Format : SubRip

Compression mode : Lossless

General

Complete name : Les.Acteurs.(2000).DVDrip.1080p.AAC.[Borsalino].FR.srt

Format : SubRip

File size : 112 KiB

Text

Format : SubRip

Compression mode : Lossless

General

Complete name : Les.Acteurs.(2000).DVDrip.1080p.AAC.[Borsalino].mkv

Format : Matroska

Format version : Version 4

File size : 3.07 GiB

Duration : 1 h 43 min

Overall bit rate : 4 240 kb/s

Movie name : Les.Acteurs.(2000).DVDrip.1080p.AAC.[Borsalino]
Writing application : mkvmerge v56.1.0 (‘My Friend’) 64-bit

Writing library : libebml v1.4.2 + libmatroska v1.6.4

Video

ID : 1

Format : AVC

Format/Info : Advanced Video Codec

Format profile : [email protected]
Format settings : CABAC / 4 Ref Frames

Format settings, CABAC : Yes

Format settings, Reference frames : 4 frames

Format settings, GOP : M=1, N=73

Codec ID : V_MPEG4/ISO/AVC

Duration : 1 h 43 min

Bit rate : 3 975 kb/s

Width : 1 920 pixels

Height : 1 080 pixels

Display aspect ratio : 16:9

Frame rate mode : Constant

Frame rate : 24.000 FPS

Color space : YUV

Chroma subsampling : 4:2:0

Bit depth : 8 bits

Scan type : Progressive

Bits/(Pixel*Frame) : 0.080

Stream size : 2.88 GiB (94%)

Title : French

Language : French

Default : Yes

Forced : No

Audio

ID : 2

Format : AAC LC

Format/Info : Advanced Audio Codec Low Complexity

Codec ID : A_AAC-2

Duration : 1 h 43 min

Bit rate : 265 kb/s

Channel(s) : 2 channels

Channel layout : L R

Sampling rate : 44.1 kHz

Frame rate : 43.066 FPS (1024 SPF)

Compression mode : Lossy

Stream size : 194 MiB (6%)

Title : French

Language : French

Default : Yes

Forced : No

Spoken language

Subtitles (srt files)
















Les Acteurs (2000) DVDrip 108Download Torrent Magnet

#Les #Acteurs #DVDrip