Leonardo DiCaprio Filmografi Full Torrent Magnet Download

Download Torrent Leonardo DiCaprio Filmografi Movie Full in HD Result. Movie Leonardo DiCaprio Filmografi Torrent Download full. Movie Leonardo DiCaprio Filmografi torrent Magnet Download Full. Leonardo DiCaprio Filmografi Full Movie Torrent Download And Magnet Download For your PC And Mobiles. Latest Movie Leonardo DiCaprio Filmografi Download Link In Bottom.

Torrent And Magnet Links Below

Leonardo DiCaprio Filmografi 1984 – 2002 Part I Packs – iCMAL [TGx]

Leonardo Wilhelm DiCaprio (born November 11, 1974), American actress and producer. DiCaprio began his acting career by appearing in television commercials in the early 1990s, and then appeared in TV series such as Santa Barbara and Growing Pains. He started his cinema career in 1991 with the role of Josh in the movie Mahluklar 3. In 1993, he starred in the movie Bu Kid’s Life. That same year, he starred in Gilbert’s Dreams and earned his first Academy nomination for Best Supporting Actor. He started to be recognized by the public with his movies like Diary and Romeo + Juliet. It became internationally famous in 1997 with James Cameron’s Titanic.

Since 2000, DiCaprio has been highly acclaimed for his work in a wide range of films. Among DiCaprio’s next films; The Man in the Iron Mask featured the biographical crime drama Catch Up If Tough, and his debut film, Gangs of New York, with Martin Scorsese, with whom he will later work many times. Subsequently, the biopic The Ruler of the Skies, the political thriller The Blood Diamond, the crime movie Mole, On Lies, drama Pursuit of Dreams, the psychological thriller Dungeon Island, the sci-fi movie The Beginning, the biopic J. Edgar, the western movie The Unchained period drama The Great Gatsby and biographical crime His movie was appreciated for his acting in the Money Hunter movies.

Wax statue of Leonardo DiCaprio at the Madame Tussauds museum in London.

DiCaprio won the Golden Globe awards for Best Actor in Drama and Best Actor in Musical and Comedy with his films Ruler of the Skies and Resurrection. He also won his first Academy and BAFTA awards with his movie Diriliş.

Leonardo Wilhelm DiCaprio was born on November 11, 1974 in Kaliforiya, Los Angeles. [1] He is the only child of Irmelin, a legal secretary, and George DiCaprio, a comic book artist and producer / distributor. [2] DiCaprio’s father is of Italian (Napoli) and German (Bavaria) descent. [3] [4] [5] DiCaprio’s maternal grandfather, Wilhelm Indenbirken, was German. [6] His grandmother, Helene Indenbirken (b. Yelena Smirnova 1915-2008) [7] was a Russian-born German citizen. [8] [9] DiCaprio referred to himself as “semi-Russian” in an interview in Russia and said that his two grandparents and his mother and father were Russian. [10] DiCaprio’s family met while attending college and moved to Los Angeles, California. [3]

DiCaprio was named Leonardo because when he first kicked his pregnant mother, his mother was looking at a Leonardo da Vinci painting in a museum in Italy. [11] His parents separated when he was one year old and mostly lived with his mother. [12] DiCaprio dropped out of high school following his third year and as a result earned his General Education Development diploma. [13] [14] DiCaprio spent part of his childhood in Germany with his grandparents and mother. He speaks German and Italian. [15] [16] [17]

Leonardo, who wanted to be an actor at the age of 11, started meeting with a representative. But the representative wanted him to change his name to Lenny Williams, which is a more American-style name. Leonardo refused, and at the age of 13 began to meet with another representative, who accepted him by name. [18]

Format : Matroska

Format version : Version 4

File size : 5.01 GiB

Duration : 3 h 14 min

Overall bit rate : 3 682 kb/s

Movie name : Titanic.1997.720p.BluRay.x264-x0r

Encoded date : UTC 2016-10-24 16:11:45

Writing application : mkvmerge v7.7.0 (‘Six Voices’) 64bit built on Mar 1 2015 01:50:05

Writing library : libebml v1.3.1 + libmatroska v1.4.2

Video

ID : 1

Format : AVC

Format/Info : Advanced Video Codec

Format profile : [email protected]
Format settings : CABAC / 8 Ref Frames

Format settings, CABAC : Yes

Format settings, Reference frames : 8 frames

Codec ID : V_MPEG4/ISO/AVC

Duration : 3 h 14 min

Bit rate : 2 560 kb/s

Width : 1 280 pixels

Height : 720 pixels

Display aspect ratio : 16:9

Frame rate mode : Constant

Frame rate : 23.976 FPS

Color space : YUV

Chroma subsampling : 4:2:0

Bit depth : 8 bits

Scan type : Progressive

Bits/(Pixel*Frame) : 0.116

Stream size : 3.48 GiB (70%)

Writing library : x264 core 142 r2389 956c8d8

Encoding settings : cabac=1 / ref=8 / deblock=1:-2:-2 / analyse=0x3:0x113 / me=umh / subme=9 / psy=1 / psy_rd=1.00:0.25 / mixed_ref=0 / me_range=48 / chroma_me=1 / trellis=1 / 8x8dct=1 / cqm=0 / deadzone=6,6 / fast_pskip=0 / chroma_qp_offset=-4 / threads=12 / lookahead_threads=1 / sliced_threads=0 / nr=0 / decimate=0 / interlaced=0 / bluray_compat=0 / constrained_intra=0 / bframes=4 / b_pyramid=2 / b_adapt=2 / b_bias=0 / direct=3 / weightb=1 / open_gop=0 / weightp=2 / keyint=240 / keyint_min=24 / scenecut=40 / intra_refresh=0 / rc_lookahead=10 / rc=2pass / mbtree=1 / bitrate=2560 / ratetol=1.0 / qcomp=0.00 / qpmin=0 / qpmax=69 / qpstep=4 / cplxblur=20.0 / qblur=0.5 / vbv_maxrate=20000 / vbv_bufsize=25000 / nal_hrd=none / filler=0 / ip_ratio=1.10 / aq=1:1.00

Language : English

Default : Yes

Forced : No

Color range : Limited

Color primaries : BT.709

Transfer characteristics : BT.709

Matrix coefficients : BT.709

Audio #1

ID : 2

Format : AC-3

Format/Info : Audio Coding 3

Commercial name : Dolby Digital

Codec ID : A_AC3

Duration : 3 h 14 min

Bit rate mode : Constant

Bit rate : 448 kb/s

Channel(s) : 6 channels

Channel layout : L R C LFE Ls Rs

Sampling rate : 48.0 kHz

Frame rate : 31.250 FPS (1536 SPF)

Compression mode : Lossy

Delay relative to video : -5 ms

Stream size : 624 MiB (12%)

Title : Surround

Language : English

Service kind : Complete Main

Default : Yes

Forced : No

Audio #2

ID : 3

Format : AC-3

Format/Info : Audio Coding 3

Commercial name : Dolby Digital

Codec ID : A_AC3

Duration : 3 h 14 min

Bit rate mode : Constant

Bit rate : 224 kb/s

Channel(s) : 2 channels

Channel layout : L R

Sampling rate : 48.0 kHz

Frame rate : 31.250 FPS (1536 SPF)

Compression mode : Lossy

Stream size : 312 MiB (6%)

Title : Commentary 1

Language : English

Service kind : Complete Main

Default : No

Forced : No

Audio #3

ID : 4

Format : AC-3

Format/Info : Audio Coding 3

Commercial name : Dolby Digital

Codec ID : A_AC3

Duration : 3 h 14 min

Bit rate mode : Constant

Bit rate : 224 kb/s

Channel(s) : 2 channels

Channel layout : L R

Sampling rate : 48.0 kHz

Frame rate : 31.250 FPS (1536 SPF)

Compression mode : Lossy

Stream size : 312 MiB (6%)

Title : Commentary 2

Language : English

Service kind : Complete Main

Default : No

Forced : No

Audio #4

ID : 5

Format : AC-3

Format/Info : Audio Coding 3

Commercial name : Dolby Digital

Codec ID : A_AC3

Duration : 3 h 14 min

Bit rate mode : Constant

Bit rate : 224 kb/s

Channel(s) : 2 channels

Channel layout : L R

Sampling rate : 48.0 kHz

Frame rate : 31.250 FPS (1536 SPF)

Compression mode : Lossy

Stream size : 312 MiB (6%)

Title : Commentary 3

Language : English

Service kind : Complete Main

Default : No

Forced : No

Text

ID : 6

Format : UTF-8

Codec ID : S_TEXT/UTF8

Codec ID/Info : UTF-8 Plain Text

Duration : 3 h 9 min

Bit rate : 51 b/s

Count of elements : 2604

Stream size : 71.3 KiB (0%)

Language : English

Default : Yes

Forced : No

Menu

00:00:00.000 : :Chapter 1

00:01:24.455 : :Chapter 2

00:04:40.067 : :Chapter 3

00:08:26.210 : :Chapter 4

00:10:46.851 : :Chapter 5

00:12:52.726 : :Chapter 6

00:16:52.507 : :Chapter 7

00:20:07.828 : :Chapter 8

00:23:38.955 : :Chapter 9

00:26:26.623 : :Chapter 10

00:29:03.446 : :Chapter 11

00:29:37.605 : :Chapter 12

00:35:00.011 : :Chapter 13

00:36:48.702 : :Chapter 14

00:42:59.239 : :Chapter 15

00:45:26.178 : :Chapter 16

00:47:11.700 : :Chapter 17

00:53:33.123 : :Chapter 18

00:56:48.067 : :Chapter 19

01:05:32.133 : :Chapter 20

01:10:20.045 : :Chapter 21

01:14:05.771 : :Chapter 22

01:16:10.771 : :Chapter 23

01:19:59.124 : :Chapter 24

01:22:50.587 : :Chapter 25

01:23:40.136 : :Chapter 26

01:28:21.709 : :Chapter 27

01:29:19.934 : :Chapter 28

01:32:51.812 : :Chapter 29

01:36:59.184 : :Chapter 30

01:44:41.229 : :Chapter 31

01:46:21.121 : :Chapter 32

01:47:58.927 : :Chapter 33

01:50:11.184 : :Chapter 34

01:52:21.481 : :Chapter 35

01:53:54.407 : :Chapter 36

01:55:21.911 : :Chapter 37

01:56:10.960 : :Chapter 38

01:57:53.312 : :Chapter 39

02:06:38.420 : :Chapter 40

02:08:50.052 : :Chapter 41

02:11:22.162 : :Chapter 42

02:15:42.630 : :Chapter 43

02:19:43.538 : :Chapter 44

02:21:24.055 : :Chapter 45

02:25:28.841 : :Chapter 46

02:27:28.502 : :Chapter 47

02:29:07.351 : :Chapter 48

02:29:55.941 : :Chapter 49

02:33:31.615 : :Chapter 50

02:36:52.441 : :Chapter 51

02:38:33.959 : :Chapter 52

02:40:34.746 : :Chapter 53

02:45:00.720 : :Chapter 54

02:47:48.888 : :Chapter 55

02:49:22.607 : :Chapter 56

02:52:09.690 : :Chapter 57

02:53:41.407 : :Chapter 58

02:57:52.908 : :Chapter 59

02:59:35.386 : :Chapter 60

03:01:28.832 : :Chapter 61

03:03:13.729 : :Chapter 62

03:04:57.958 : :Chapter 63

03:07:19.724 : :Chapter 64

Leonardo DiCaprio Filmografi Download Torrent Magnet

#Leonardo #DiCaprio #Filmografi