Léon Morin Pretre (1961) 720p Full Torrent Magnet Download

Download Torrent Léon Morin Pretre (1961) 720p Movie Full in HD Result. Movie Léon Morin Pretre (1961) 720p Torrent Download full. Movie Léon Morin Pretre (1961) 720p torrent Magnet Download Full. Léon Morin Pretre (1961) 720p Full Movie Torrent Download And Magnet Download For your PC And Mobiles. Latest Movie Léon Morin Pretre (1961) 720p Download Link In Bottom.

Torrent And Magnet Links Below

IMDB

Code:


General

Complete name : Léon.Morin.Pretre.(1961).720p.CRITERION.BluRay.AAC.[Borsalino].DE.srt

Format : SubRip

File size : 97.1 KiB

Text

Format : SubRip

Compression mode : Lossless

General

Complete name : Léon.Morin.Pretre.(1961).720p.CRITERION.BluRay.AAC.[Borsalino].EN.srt

Format : SubRip

File size : 96.1 KiB

Text

Format : SubRip

Compression mode : Lossless

General

Complete name : Léon.Morin.Pretre.(1961).720p.CRITERION.BluRay.AAC.[Borsalino].ES.srt

Format : SubRip

File size : 83.6 KiB

Text

Format : SubRip

Compression mode : Lossless

General

Complete name : Léon.Morin.Pretre.(1961).720p.CRITERION.BluRay.AAC.[Borsalino].IT.srt

Format : SubRip

File size : 102 KiB

Text

Format : SubRip

Compression mode : Lossless

General

Complete name : Léon.Morin.Pretre.(1961).720p.CRITERION.BluRay.AAC.[Borsalino].mkv

Format : Matroska

Format version : Version 4

File size : 2.04 GiB

Duration : 1 h 57 min

Overall bit rate : 2 478 kb/s

Movie name : Léon.Morin.Pretre.(1961).720p.CRITERION.BluRay.AAC.[Borsalino]
Writing application : mkvmerge v56.1.0 (‘My Friend’) 64-bit

Writing library : libebml v1.4.2 + libmatroska v1.6.4

Video

ID : 1

Format : AVC

Format/Info : Advanced Video Codec

Format profile : [email protected]
Format settings : CABAC / 4 Ref Frames

Format settings, CABAC : Yes

Format settings, Reference frames : 4 frames

Format settings, GOP : M=1, N=72

Codec ID : V_MPEG4/ISO/AVC

Duration : 1 h 57 min

Bit rate : 2 214 kb/s

Width : 1 194 pixels

Height : 720 pixels

Display aspect ratio : 5:3

Frame rate mode : Constant

Frame rate : 23.976 FPS

Color space : YUV

Chroma subsampling : 4:2:0

Bit depth : 8 bits

Scan type : Progressive

Bits/(Pixel*Frame) : 0.107

Stream size : 1.82 GiB (89%)

Title : French

Language : French

Default : Yes

Forced : No

Audio

ID : 2

Format : AAC LC

Format/Info : Advanced Audio Codec Low Complexity

Codec ID : A_AAC-2

Duration : 1 h 57 min

Bit rate : 265 kb/s

Channel(s) : 2 channels

Channel layout : L R

Sampling rate : 44.1 kHz

Frame rate : 43.066 FPS (1024 SPF)

Compression mode : Lossy

Stream size : 221 MiB (11%)

Title : French

Language : French

Default : Yes

Forced : No

Spoken language

Subtitles (srt files)












Léon Morin Pretre (1961) 720pDownload Torrent Magnet

#Léon #Morin #Pretre #720p