Legion (2010) 1080p h264 Ac3 Full Torrent Magnet Download

Download Torrent Legion (2010) 1080p h264 Ac3 Movie Full in HD Result. Movie Legion (2010) 1080p h264 Ac3 Torrent Download full. Movie Legion (2010) 1080p h264 Ac3 torrent Magnet Download Full. Legion (2010) 1080p h264 Ac3 Full Movie Torrent Download And Magnet Download For your PC And Mobiles. Latest Movie Legion (2010) 1080p h264 Ac3 Download Link In Bottom.

Torrent And Magnet Links Below

Legion (2010) 1080p h264 Ac3 5.1 Ita Eng Sub Ita Eng – MIRCrew


NO FOUND ONLY ORIGINAL RELEASE

My release is always in double track audio italian and Original audio

for select it use VLC or dvd player home

not use wmp

Legion (2010)

Quality MIRCrew on HD 1080p da 2,4 gb

Lingua originale inglese

Paese di produzione Stati Uniti d’America

Anno 2010

Durata 100 min

Genere fantascienza, azione, avventura, Horror

Regia Scott Stewart

Sceneggiatura Peter Schink, Scott Stewart

Paul Bettany: Arcangelo Michele

Kevin Durand: Arcangelo Gabriele

Dennis Quaid: Bob Hanson

Lucas Black: Jeep Hanson

Adrianne Palicki: Charlie

Willa Holland: Audrey Anderson

Tyrese Gibson: Kyle Williams

Charles S. Dutton: Percy Walker

Kate Walsh: Sandra Anderson

Jon Tenney: Howard Anderson

Jeanette Miller: Gladys Foster

Cameron Harlow: Minivan Boy

Doug Jones: uomo dei gelati

Los Angeles. L’Arcangelo Michele scende di nascosto sulla Terra e, dopo essersi tagliato le ali per impedire agli altri angeli di rintracciarlo, saccheggia un deposito d’armi e parte verso una destinazione sconosciuta.

When a group of strangers at a dusty roadside diner come under attack by demonic forces, their only chance for survival lies with an archangel named Michael, who informs a pregnant waitress that her unborn child is humanity’s last hope.

General

Complete name : Legion (2010) 1080p h264 Ac3 5.1 Ita Eng Sub Ita Eng – MIRCrew.mkv

Format : Matroska

Format version : Version 2

File size : 2.38 GiB

Duration : 1h 40mn

Overall bit rate : 3 402 Kbps

Movie name : MIRCrew

Encoded date : UTC 2021-05-25 15:39:39

Writing application : mkvmerge v5.8.0 (‘No Sleep / Pillow’) built on Sep 2 2012 15:37:04

Writing library : libebml v1.2.3 + libmatroska v1.3.0

Video

ID : 1

Format : AVC

Format/Info : Advanced Video Codec

Format profile : [email protected]
Format settings, CABAC : Yes

Format settings, ReFrames : 4 frames

Codec ID : V_MPEG4/ISO/AVC

Duration : 1h 40mn

Bit rate : 2 500 Kbps

Width : 1 920 pixels

Height : 800 pixels

Display aspect ratio : 2.40:1

Frame rate : 23.976 fps

Color space : YUV

Chroma subsampling : 4:2:0

Bit depth : 8 bits

Scan type : Progressive

Bits/(Pixel*Frame) : 0.068

Stream size : 1.71 GiB (72%)

Title : MIRCrew

Writing library : x264 core 152 r2851M ba24899

Encoding settings : cabac=1 / ref=4 / deblock=1:-1:-1

Language : Italian

Default : Yes

Forced : No

Audio #1

ID : 2

Format : AC-3

Format/Info : Audio Coding 3

Mode extension : CM (complete main)

Codec ID : A_AC3

Duration : 1h 40mn

Bit rate mode : Constant

Bit rate : 448 Kbps

Channel(s) : 6 channels

Channel positions : Front: L C R, Side: L R, LFE

Sampling rate : 48.0 KHz

Bit depth : 16 bits

Compression mode : Lossy

Stream size : 321 MiB (13%)

Title : Ita Ac3 5.1

Language : Italian

Default : Yes

Forced : No

Audio #2

ID : 3

Format : AC-3

Format/Info : Audio Coding 3

Mode extension : CM (complete main)

Codec ID : A_AC3

Duration : 1h 40mn

Bit rate mode : Constant

Bit rate : 448 Kbps

Channel(s) : 6 channels

Channel positions : Front: L C R, Side: L R, LFE

Sampling rate : 48.0 KHz

Bit depth : 16 bits

Compression mode : Lossy

Stream size : 321 MiB (13%)

Title : Eng Ac3 5.1

Language : English

Default : No

Forced : No

Text #1

ID : 4

Format : VobSub

Muxing mode : zlib

Codec ID : S_VOBSUB

Codec ID/Info : The same subtitle format used on DVDs

Language : Italian

Default : No

Forced : No

Text #2

ID : 5

Format : VobSub

Muxing mode : zlib

Codec ID : S_VOBSUB

Codec ID/Info : The same subtitle format used on DVDs

Language : English

Default : Yes

Forced : No

Legion (2010) 1080p h264 Ac3 Download Torrent Magnet

#Legion #1080p #h264 #Ac3