L’eclisse (1962) Criterion BD Full Torrent Magnet Download

Download Torrent L’eclisse (1962) Criterion BD Movie Full in HD Result. Movie L’eclisse (1962) Criterion BD Torrent Download full. Movie L’eclisse (1962) Criterion BD torrent Magnet Download Full. L’eclisse (1962) Criterion BD Full Movie Torrent Download And Magnet Download For your PC And Mobiles. Latest Movie L’eclisse (1962) Criterion BD Download Link In Bottom.

Torrent And Magnet Links Below

IMDB

Code:


General

Complete name : L’eclisse.(1962).Criterion.BDRemux.1080p.PCM.[Borsalino].DE.srt

Format : SubRip

File size : 48.2 KiB

Text

Format : SubRip

Compression mode : Lossless

General

Complete name : L’eclisse.(1962).Criterion.BDRemux.1080p.PCM.[Borsalino].EL.srt

Format : SubRip

File size : 32.6 KiB

Text

Format : SubRip

Compression mode : Lossless

General

Complete name : L’eclisse.(1962).Criterion.BDRemux.1080p.PCM.[Borsalino].EN.srt

Format : SubRip

File size : 45.8 KiB

Text

Format : SubRip

Compression mode : Lossless

General

Complete name : L’eclisse.(1962).Criterion.BDRemux.1080p.PCM.[Borsalino].FR.srt

Format : SubRip

File size : 43.1 KiB

Text

Format : SubRip

Compression mode : Lossless

General

Complete name : L’eclisse.(1962).Criterion.BDRemux.1080p.PCM.[Borsalino].IT.srt

Format : SubRip

File size : 65.8 KiB

Text

Format : SubRip

Compression mode : Lossless

General

Complete name : L’eclisse.(1962).Criterion.BDRemux.1080p.PCM.[Borsalino].PT.srt

Format : SubRip

File size : 43.2 KiB

Text

Format : SubRip

Compression mode : Lossless

General

Complete name : L’eclisse.(1962).Criterion.BDRemux.1080p.PCM.[Borsalino].RO.srt

Format : SubRip

File size : 45.6 KiB

Text

Format : SubRip

Compression mode : Lossless

General

Complete name : L’eclisse.(1962).Criterion.BDRemux.1080p.PCM.[Borsalino].RU.srt

Format : SubRip

File size : 62.4 KiB

Text

Format : SubRip

Compression mode : Lossless

General

Complete name : L’eclisse.(1962).Criterion.BDRemux.1080p.PCM.[Borsalino].mkv

Format : Matroska

Format version : Version 4

File size : 30.4 GiB

Duration : 2 h 6 min

Overall bit rate mode : Variable

Overall bit rate : 34.5 Mb/s

Movie name : L’eclisse.(1962).Criterion.BDRemux.1080p.PCM.[Borsalino]
Writing application : mkvmerge v56.1.0 (‘My Friend’) 64-bit

Writing library : libebml v1.4.2 + libmatroska v1.6.4

Video

ID : 1

Format : AVC

Format/Info : Advanced Video Codec

Format profile : [email protected]
Format settings : CABAC / 4 Ref Frames

Format settings, CABAC : Yes

Format settings, Reference frames : 4 frames

Codec ID : V_MPEG4/ISO/AVC

Duration : 2 h 6 min

Bit rate mode : Variable

Bit rate : 33.4 Mb/s

Maximum bit rate : 37.0 Mb/s

Width : 1 920 pixels

Height : 1 080 pixels

Display aspect ratio : 16:9

Frame rate mode : Constant

Frame rate : 23.976 (24000/1001) FPS

Color space : YUV

Chroma subsampling : 4:2:0

Bit depth : 8 bits

Scan type : Progressive

Bits/(Pixel*Frame) : 0.672

Stream size : 29.4 GiB (97%)

Title : Italian

Language : Italian

Default : Yes

Forced : No

Audio

ID : 2

Format : PCM

Format settings : Little / Signed

Codec ID : A_PCM/INT/LIT

Duration : 2 h 6 min

Bit rate mode : Constant

Bit rate : 1 152 kb/s

Channel(s) : 1 channel

Sampling rate : 48.0 kHz

Frame rate : 32.000 FPS (1500 SPF)

Bit depth : 24 bits

Stream size : 1.01 GiB (3%)

Title : Italian

Language : Italian

Default : No

Forced : No

Spoken language

Subtitles (srt files)













L’eclisse (1962) Criterion BDDownload Torrent Magnet

#Leclisse #Criterion