Le samouraï (1967) BDRemux 10 Full Torrent Magnet Download

Download Torrent Le samouraï (1967) BDRemux 10 Movie Full in HD Result. Movie Le samouraï (1967) BDRemux 10 Torrent Download full. Movie Le samouraï (1967) BDRemux 10 torrent Magnet Download Full. Le samouraï (1967) BDRemux 10 Full Movie Torrent Download And Magnet Download For your PC And Mobiles. Latest Movie Le samouraï (1967) BDRemux 10 Download Link In Bottom.

Torrent And Magnet Links Below

IMDB

Code:


General

Complete name : Le.samouraï.(1967).BDRemux.1080p.FLAC.[Borsalino].DE.srt

Format : SubRip

File size : 42.7 KiB

Text

Format : SubRip

Compression mode : Lossless

General

Complete name : Le.samouraï.(1967).BDRemux.1080p.FLAC.[Borsalino].EL.srt

Format : SubRip

File size : 36.6 KiB

Text

Format : SubRip

Compression mode : Lossless

General

Complete name : Le.samouraï.(1967).BDRemux.1080p.FLAC.[Borsalino].EN.srt

Format : SubRip

File size : 33.6 KiB

Text

Format : SubRip

Compression mode : Lossless

General

Complete name : Le.samouraï.(1967).BDRemux.1080p.FLAC.[Borsalino].ES.srt

Format : SubRip

File size : 39.0 KiB

Text

Format : SubRip

Compression mode : Lossless

General

Complete name : Le.samouraï.(1967).BDRemux.1080p.FLAC.[Borsalino].FR.srt

Format : SubRip

File size : 37.2 KiB

Text

Format : SubRip

Compression mode : Lossless

General

Complete name : Le.samouraï.(1967).BDRemux.1080p.FLAC.[Borsalino].IT.srt

Format : SubRip

File size : 35.9 KiB

Text

Format : SubRip

Compression mode : Lossless

General

Complete name : Le.samouraï.(1967).BDRemux.1080p.FLAC.[Borsalino].NL.srt

Format : SubRip

File size : 34.9 KiB

Text

Format : SubRip

Compression mode : Lossless

General

Complete name : Le.samouraï.(1967).BDRemux.1080p.FLAC.[Borsalino].PT.srt

Format : SubRip

File size : 37.5 KiB

Text

Format : SubRip

Compression mode : Lossless

General

Complete name : Le.samouraï.(1967).BDRemux.1080p.FLAC.[Borsalino].RO.srt

Format : SubRip

File size : 35.3 KiB

Text

Format : SubRip

Compression mode : Lossless

General

Complete name : Le.samouraï.(1967).BDRemux.1080p.FLAC.[Borsalino].RU.srt

Format : SubRip

File size : 49.0 KiB

Text

Format : SubRip

Compression mode : Lossless

General

Complete name : Le.samouraï.(1967).BDRemux.1080p.FLAC.[Borsalino].mkv

Format : Matroska

Format version : Version 4

File size : 25.7 GiB

Duration : 1 h 45 min

Overall bit rate mode : Variable

Overall bit rate : 34.9 Mb/s

Movie name : Le.samouraï.(1967).BDRemux.1080p.FLAC.[Borsalino]
Writing application : mkvmerge v56.1.0 (‘My Friend’) 64-bit

Writing library : libebml v1.4.2 + libmatroska v1.6.4

Video

ID : 1

Format : AVC

Format/Info : Advanced Video Codec

Format profile : [email protected]
Format settings : CABAC / 4 Ref Frames

Format settings, CABAC : Yes

Format settings, Reference frames : 4 frames

Codec ID : V_MPEG4/ISO/AVC

Duration : 1 h 45 min

Bit rate mode : Variable

Bit rate : 34.3 Mb/s

Maximum bit rate : 37.0 Mb/s

Width : 1 920 pixels

Height : 1 080 pixels

Display aspect ratio : 16:9

Frame rate mode : Variable

Frame rate : 23.085 FPS

Original frame rate : 23.976 (24000/1001) FPS

Color space : YUV

Chroma subsampling : 4:2:0

Bit depth : 8 bits

Scan type : Progressive

Bits/(Pixel*Frame) : 0.716

Stream size : 25.2 GiB (98%)

Title : French

Language : French

Default : Yes

Forced : No

Audio

ID : 2

Format : FLAC

Format/Info : Free Lossless Audio Codec

Codec ID : A_FLAC

Duration : 1 h 45 min

Bit rate mode : Variable

Bit rate : 595 kb/s

Channel(s) : 1 channel

Channel layout : C

Sampling rate : 48.0 kHz

Frame rate : 11.296 FPS (4249 SPF)

Bit depth : 24 bits

Compression mode : Lossless

Stream size : 449 MiB (2%)

Title : French

Writing library : libFLAC 1.2.1 (UTC 2007-09-17)

Language : French

Default : No

Forced : No

Spoken language

Subtitles (srt files)















Le samouraï (1967) BDRemux 10Download Torrent Magnet

#samouraï #BDRemux