Le mouton à cinq pattes (1954 Full Torrent Magnet Download

Download Torrent Le mouton à cinq pattes (1954 Movie Full in HD Result. Movie Le mouton à cinq pattes (1954 Torrent Download full. Movie Le mouton à cinq pattes (1954 torrent Magnet Download Full. Le mouton à cinq pattes (1954 Full Movie Torrent Download And Magnet Download For your PC And Mobiles. Latest Movie Le mouton à cinq pattes (1954 Download Link In Bottom.

Torrent And Magnet Links Below

IMDB

Code:


General

Complete name : Le.mouton.a.cinq.pattes.(1954).BDRip.720p.DTS.[Borsalino].DE.srt

Format : SubRip

File size : 102 KiB

Text

Format : SubRip

Compression mode : Lossless

General

Complete name : Le.mouton.a.cinq.pattes.(1954).BDRip.720p.DTS.[Borsalino].EL.srt

Format : SubRip

File size : 71.5 KiB

Text

Format : SubRip

Compression mode : Lossless

General

Complete name : Le.mouton.a.cinq.pattes.(1954).BDRip.720p.DTS.[Borsalino].EN.srt

Format : SubRip

File size : 71.1 KiB

Text

Format : SubRip

Compression mode : Lossless

General

Complete name : Le.mouton.a.cinq.pattes.(1954).BDRip.720p.DTS.[Borsalino].NL.srt

Format : SubRip

File size : 74.5 KiB

Text

Format : SubRip

Compression mode : Lossless

General

Complete name : Le.mouton.a.cinq.pattes.(1954).BDRip.720p.DTS.[Borsalino].mkv

Format : Matroska

Format version : Version 4

File size : 7.44 GiB

Duration : 1 h 43 min

Overall bit rate : 10.3 Mb/s

Movie name : Le.mouton.a.cinq.pattes.(1954).BDRip.720p.DTS.[Borsalino]
Writing application : mkvmerge v56.1.0 (‘My Friend’) 64-bit

Writing library : libebml v1.4.2 + libmatroska v1.6.4

Video

ID : 1

Format : AVC

Format/Info : Advanced Video Codec

Format profile : [email protected]
Format settings : CABAC / 12 Ref Frames

Format settings, CABAC : Yes

Format settings, Reference frames : 12 frames

Codec ID : V_MPEG4/ISO/AVC

Duration : 1 h 43 min

Bit rate : 8 741 kb/s

Width : 960 pixels

Height : 720 pixels

Display aspect ratio : 4:3

Frame rate mode : Constant

Frame rate : 24.000 FPS

Color space : YUV

Chroma subsampling : 4:2:0

Bit depth : 8 bits

Scan type : Progressive

Bits/(Pixel*Frame) : 0.527

Stream size : 6.35 GiB (85%)

Title : French

Writing library : x264 core 161 r3018 db0d417

Encoding settings : cabac=1 / ref=12 / deblock=1:-3:-3 / analyse=0x3:0x113 / me=umh / subme=10 / psy=1 / psy_rd=1.00:0.00 / mixed_ref=1 / me_range=32 / chroma_me=1 / trellis=2 / 8x8dct=1 / cqm=0 / deadzone=21,11 / fast_pskip=0 / chroma_qp_offset=-2 / threads=12 / lookahead_threads=3 / sliced_threads=0 / nr=0 / decimate=0 / interlaced=0 / bluray_compat=0 / constrained_intra=0 / bframes=11 / b_pyramid=2 / b_adapt=2 / b_bias=0 / direct=1 / weightb=1 / open_gop=0 / weightp=2 / keyint=230 / keyint_min=23 / scenecut=40 / intra_refresh=0 / rc_lookahead=40 / rc=crf / mbtree=0 / crf=16.7 / qcomp=0.60 / qpmin=0 / qpmax=69 / qpstep=4 / vbv_maxrate=62500 / vbv_bufsize=78125 / crf_max=0.0 / nal_hrd=none / filler=0 / ip_ratio=1.40 / pb_ratio=1.30 / aq=3:1.00

Language : French

Default : Yes

Forced : No

Audio

ID : 2

Format : DTS

Format/Info : Digital Theater Systems

Codec ID : A_DTS

Duration : 1 h 43 min

Bit rate mode : Constant

Bit rate : 1 509 kb/s

Channel(s) : 2 channels

Channel layout : L R

Sampling rate : 48.0 kHz

Frame rate : 93.750 FPS (512 SPF)

Bit depth : 16 bits

Compression mode : Lossy

Stream size : 1.10 GiB (15%)

Title : French

Language : French

Default : No

Forced : No

Text #1

ID : 3

Format : UTF-8

Codec ID : S_TEXT/UTF8

Codec ID/Info : UTF-8 Plain Text

Duration : 1 h 43 min

Bit rate : 64 b/s

Count of elements : 1417

Stream size : 49.0 KiB (0%)

Title : French

Language : French

Default : No

Forced : No

Text #2

ID : 4

Format : UTF-8

Codec ID : S_TEXT/UTF8

Codec ID/Info : UTF-8 Plain Text

Duration : 1 h 43 min

Bit rate : 47 b/s

Count of elements : 896

Stream size : 36.2 KiB (0%)

Title : English

Language : English

Default : No

Forced : No

Spoken language

Subtitles (srt files)














Le mouton à cinq pattes (1954Download Torrent Magnet

#mouton #cinq #pattes