Le Magnifique (1973) BDRip 10 Full Torrent Magnet Download

Download Torrent Le Magnifique (1973) BDRip 10 Movie Full in HD Result. Movie Le Magnifique (1973) BDRip 10 Torrent Download full. Movie Le Magnifique (1973) BDRip 10 torrent Magnet Download Full. Le Magnifique (1973) BDRip 10 Full Movie Torrent Download And Magnet Download For your PC And Mobiles. Latest Movie Le Magnifique (1973) BDRip 10 Download Link In Bottom.

Torrent And Magnet Links Below

IMDB

Code:


General

Complete name : Le.Magnifique.(1973).BDRip.1080p.DTS.[Borsalino].DE.srt

Format : SubRip

File size : 68.2 KiB

Text

Format : SubRip

Compression mode : Lossless

General

Complete name : Le.Magnifique.(1973).BDRip.1080p.DTS.[Borsalino].EN.srt

Format : SubRip

File size : 65.3 KiB

Text

Format : SubRip

Compression mode : Lossless

General

Complete name : Le.Magnifique.(1973).BDRip.1080p.DTS.[Borsalino].FR.srt

Format : SubRip

File size : 61.6 KiB

Text

Format : SubRip

Compression mode : Lossless

General

Complete name : Le.Magnifique.(1973).BDRip.1080p.DTS.[Borsalino].NL.srt

Format : SubRip

File size : 46.0 KiB

Text

Format : SubRip

Compression mode : Lossless

General

Complete name : Le.Magnifique.(1973).BDRip.1080p.DTS.[Borsalino].mkv

Format : Matroska

Format version : Version 4

File size : 10.4 GiB

Duration : 1 h 33 min

Overall bit rate : 15.9 Mb/s

Movie name : Le.Magnifique.(1973).BDRip.1080p.DTS.[Borsalino]
Writing application : mkvmerge v56.1.0 (‘My Friend’) 64-bit

Writing library : libebml v1.4.2 + libmatroska v1.6.4

Video

ID : 1

Format : AVC

Format/Info : Advanced Video Codec

Format profile : [email protected]
Format settings : CABAC / 4 Ref Frames

Format settings, CABAC : Yes

Format settings, Reference frames : 4 frames

Codec ID : V_MPEG4/ISO/AVC

Duration : 1 h 33 min

Bit rate : 14.4 Mb/s

Width : 1 794 pixels

Height : 1 080 pixels

Display aspect ratio : 5:3

Frame rate mode : Constant

Frame rate : 24.000 FPS

Color space : YUV

Chroma subsampling : 4:2:0

Bit depth : 8 bits

Scan type : Progressive

Bits/(Pixel*Frame) : 0.310

Stream size : 9.46 GiB (91%)

Title : French

Writing library : x264 core 146 r2538 121396c

Encoding settings : cabac=1 / ref=4 / deblock=1:-3:-3 / analyse=0x3:0x133 / me=umh / subme=11 / psy=1 / psy_rd=1.00:0.15 / mixed_ref=1 / me_range=24 / chroma_me=1 / trellis=2 / 8x8dct=1 / cqm=0 / deadzone=21,11 / fast_pskip=0 / chroma_qp_offset=-3 / threads=12 / lookahead_threads=2 / sliced_threads=0 / nr=0 / decimate=1 / interlaced=0 / bluray_compat=0 / constrained_intra=0 / bframes=8 / b_pyramid=2 / b_adapt=2 / b_bias=0 / direct=3 / weightb=1 / open_gop=0 / weightp=2 / keyint=250 / keyint_min=23 / scenecut=40 / intra_refresh=0 / rc_lookahead=40 / rc=2pass / mbtree=1 / bitrate=14412 / ratetol=1.0 / qcomp=0.60 / qpmin=0 / qpmax=69 / qpstep=4 / cplxblur=20.0 / qblur=0.5 / vbv_maxrate=50000 / vbv_bufsize=62500 / nal_hrd=none / filler=0 / ip_ratio=1.40 / aq=1:0.80

Language : French

Default : Yes

Forced : No

Audio

ID : 2

Format : DTS

Format/Info : Digital Theater Systems

Codec ID : A_DTS

Duration : 1 h 33 min

Bit rate mode : Constant

Bit rate : 1 509 kb/s

Channel(s) : 2 channels

Channel layout : L R

Sampling rate : 48.0 kHz

Frame rate : 93.750 FPS (512 SPF)

Bit depth : 16 bits

Compression mode : Lossy

Stream size : 1 014 MiB (9%)

Title : French

Language : French

Default : No

Forced : No

Text #1

ID : 3

Format : UTF-8

Codec ID : S_TEXT/UTF8

Codec ID/Info : UTF-8 Plain Text

Duration : 1 h 29 min

Bit rate : 74 b/s

Count of elements : 966

Stream size : 48.6 KiB (0%)

Title : Russian

Language : Russian

Default : No

Forced : No

Text #2

ID : 4

Format : UTF-8

Codec ID : S_TEXT/UTF8

Codec ID/Info : UTF-8 Plain Text

Duration : 1 h 29 min

Bit rate : 41 b/s

Count of elements : 970

Stream size : 27.2 KiB (0%)

Title : English

Language : English

Default : No

Forced : No

Text #3

ID : 5

Format : UTF-8

Codec ID : S_TEXT/UTF8

Codec ID/Info : UTF-8 Plain Text

Duration : 1 h 29 min

Bit rate : 40 b/s

Count of elements : 905

Stream size : 26.4 KiB (0%)

Title : French

Language : French

Default : No

Forced : No

Spoken language

Subtitles (srt files)









Le Magnifique (1973) BDRip 10Download Torrent Magnet

#Magnifique #BDRip