Le grand chemin (1987) DVDrip Full Torrent Magnet Download

Download Torrent Le grand chemin (1987) DVDrip Movie Full in HD Result. Movie Le grand chemin (1987) DVDrip Torrent Download full. Movie Le grand chemin (1987) DVDrip torrent Magnet Download Full. Le grand chemin (1987) DVDrip Full Movie Torrent Download And Magnet Download For your PC And Mobiles. Latest Movie Le grand chemin (1987) DVDrip Download Link In Bottom.

Torrent And Magnet Links Below

IMDB

Code:


General

Complete name : Le.grand.chemin.(1987).DVDrip.(720x576p).AC3.[Borsalino].DE.srt

Format : SubRip

File size : 80.8 KiB

Text

Format : SubRip

Compression mode : Lossless

General

Complete name : Le.grand.chemin.(1987).DVDrip.(720x576p).AC3.[Borsalino].EN.srt

Format : SubRip

File size : 78.7 KiB

Text

Format : SubRip

Compression mode : Lossless

General

Complete name : Le.grand.chemin.(1987).DVDrip.(720x576p).AC3.[Borsalino].FR.srt

Format : SubRip

File size : 84.7 KiB

Text

Format : SubRip

Compression mode : Lossless

General

Complete name : Le.grand.chemin.(1987).DVDrip.(720x576p).AC3.[Borsalino].NL.srt

Format : SubRip

File size : 81.8 KiB

Text

Format : SubRip

Compression mode : Lossless

General

Complete name : Le.grand.chemin.(1987).DVDrip.(720x576p).AC3.[Borsalino].mkv

Format : Matroska

Format version : Version 4

File size : 5.20 GiB

Duration : 1 h 42 min

Overall bit rate mode : Variable

Overall bit rate : 7 250 kb/s

Movie name : Le.grand.chemin.(1987).DVDrip.(720x576p).AC3.[Borsalino]
Writing application : mkvmerge v56.1.0 (‘My Friend’) 64-bit

Writing library : libebml v1.4.2 + libmatroska v1.6.4

Video

ID : 1

Format : MPEG Video

Format version : Version 2

Format profile : [email protected]
Format settings : CustomMatrix / BVOP

Format settings, BVOP : Yes

Format settings, Matrix : Custom

Format settings, GOP : M=3, N=15

Format settings, picture structure : Frame

Codec ID : V_MPEG2

Codec ID/Info : MPEG 1 or 2 Video

Duration : 1 h 42 min

Bit rate mode : Variable

Bit rate : 6 800 kb/s

Maximum bit rate : 8 500 kb/s

Width : 720 pixels

Height : 576 pixels

Display aspect ratio : 16:9

Frame rate mode : Constant

Frame rate : 25.000 FPS

Standard : PAL

Color space : YUV

Chroma subsampling : 4:2:0

Bit depth : 8 bits

Scan type : Interlaced

Scan order : Top Field First

Compression mode : Lossy

Bits/(Pixel*Frame) : 0.656

Time code of first frame : 10:00:12:14

Time code source : Group of pictures header

GOP, Open/Closed : Open

GOP, Open/Closed of first frame : Closed

Stream size : 4.88 GiB (94%)

Title : French

Language : French

Default : Yes

Forced : No

Audio

ID : 2

Format : AC-3

Format/Info : Audio Coding 3

Commercial name : Dolby Digital

Codec ID : A_AC3

Duration : 1 h 42 min

Bit rate mode : Constant

Bit rate : 448 kb/s

Channel(s) : 6 channels

Channel layout : L R C LFE Ls Rs

Sampling rate : 48.0 kHz

Frame rate : 31.250 FPS (1536 SPF)

Compression mode : Lossy

Stream size : 329 MiB (6%)

Title : French

Language : French

Service kind : Complete Main

Default : Yes

Forced : No

Spoken language

Subtitles (srt files)












Le grand chemin (1987) DVDripDownload Torrent Magnet

#grand #chemin #DVDrip