Le Gang (1977) BluRay 1080p A Full Torrent Magnet Download

Download Torrent Le Gang (1977) BluRay 1080p A Movie Full in HD Result. Movie Le Gang (1977) BluRay 1080p A Torrent Download full. Movie Le Gang (1977) BluRay 1080p A torrent Magnet Download Full. Le Gang (1977) BluRay 1080p A Full Movie Torrent Download And Magnet Download For your PC And Mobiles. Latest Movie Le Gang (1977) BluRay 1080p A Download Link In Bottom.

Torrent And Magnet Links Below

IMDB

Code:


General

Complete name : Le.Gang.(1977).BluRay.1080p.AAC.[Borsalino].EN.srt

Format : SubRip

File size : 45.8 KiB

Text

Format : SubRip

Compression mode : Lossless

General

Complete name : Le.Gang.(1977).BluRay.1080p.AAC.[Borsalino].NL.srt

Format : SubRip

File size : 47.6 KiB

Text

Format : SubRip

Compression mode : Lossless

General

Complete name : Le.Gang.(1977).BluRay.1080p.AAC.[Borsalino].mkv

Format : Matroska

Format version : Version 4

File size : 1.72 GiB

Duration : 1 h 43 min

Overall bit rate : 2 380 kb/s

Movie name : Le.Gang.(1977).BluRay.1080p.AAC.[Borsalino]
Writing application : mkvmerge v56.1.0 (‘My Friend’) 64-bit

Writing library : libebml v1.4.2 + libmatroska v1.6.4

Video

ID : 1

Format : AVC

Format/Info : Advanced Video Codec

Format profile : [email protected]
Format settings : CABAC / 4 Ref Frames

Format settings, CABAC : Yes

Format settings, Reference frames : 4 frames

Codec ID : V_MPEG4/ISO/AVC

Duration : 1 h 43 min

Bit rate : 2 250 kb/s

Width : 1 920 pixels

Height : 1 024 pixels

Display aspect ratio : 1.85:1

Frame rate mode : Constant

Frame rate : 23.976 (24000/1001) FPS

Color space : YUV

Chroma subsampling : 4:2:0

Bit depth : 8 bits

Scan type : Progressive

Bits/(Pixel*Frame) : 0.048

Stream size : 1.63 GiB (95%)

Title : French

Writing library : x264 core 158

Encoding settings : cabac=1 / ref=4 / deblock=1:-1:-1 / analyse=0x3:0x133 / me=umh / subme=9 / psy=1 / psy_rd=1.00:0.15 / mixed_ref=1 / me_range=24 / chroma_me=1 / trellis=2 / 8x8dct=1 / cqm=0 / deadzone=21,11 / fast_pskip=0 / chroma_qp_offset=-3 / threads=12 / lookahead_threads=1 / sliced_threads=0 / nr=0 / decimate=1 / interlaced=0 / bluray_compat=0 / constrained_intra=0 / bframes=3 / b_pyramid=2 / b_adapt=2 / b_bias=0 / direct=3 / weightb=1 / open_gop=0 / weightp=2 / keyint=250 / keyint_min=23 / scenecut=40 / intra_refresh=0 / rc_lookahead=60 / rc=2pass / mbtree=1 / bitrate=2250 / ratetol=1.0 / qcomp=0.60 / qpmin=0 / qpmax=69 / qpstep=4 / cplxblur=20.0 / qblur=0.5 / vbv_maxrate=31250 / vbv_bufsize=31250 / nal_hrd=none / filler=0 / ip_ratio=1.40 / aq=1:1.00

Language : French

Default : Yes

Forced : No

Audio

ID : 2

Format : AAC LC

Format/Info : Advanced Audio Codec Low Complexity

Codec ID : A_AAC-2

Duration : 1 h 43 min

Bit rate : 128 kb/s

Channel(s) : 2 channels

Channel layout : L R

Sampling rate : 48.0 kHz

Frame rate : 46.875 FPS (1024 SPF)

Compression mode : Lossy

Delay relative to video : -21 ms

Stream size : 95.2 MiB (5%)

Title : French

Language : French

Default : Yes

Forced : No

Spoken language

Subtitles (srt files)









Le Gang (1977) BluRay 1080p ADownload Torrent Magnet

#Gang #BluRay #1080p