Le battant (1983) BluRay 1080 Full Torrent Magnet Download

Download Torrent Le battant (1983) BluRay 1080 Movie Full in HD Result. Movie Le battant (1983) BluRay 1080 Torrent Download full. Movie Le battant (1983) BluRay 1080 torrent Magnet Download Full. Le battant (1983) BluRay 1080 Full Movie Torrent Download And Magnet Download For your PC And Mobiles. Latest Movie Le battant (1983) BluRay 1080 Download Link In Bottom.

Torrent And Magnet Links Below

IMDB

Code:


General

Complete name : Le.battant.(1983).BluRay.1080p.DTS.[Borsalino].DE.srt

Format : SubRip

File size : 88.1 KiB

Text

Format : SubRip

Compression mode : Lossless

General

Complete name : Le.battant.(1983).BluRay.1080p.DTS.[Borsalino].EN.srt

Format : SubRip

File size : 85.6 KiB

Text

Format : SubRip

Compression mode : Lossless

General

Complete name : Le.battant.(1983).BluRay.1080p.DTS.[Borsalino].FR.srt

Format : SubRip

File size : 92.3 KiB

Text

Format : SubRip

Compression mode : Lossless

General

Complete name : Le.battant.(1983).BluRay.1080p.DTS.[Borsalino].NL.srt

Format : SubRip

File size : 88.4 KiB

Text

Format : SubRip

Compression mode : Lossless

General

Complete name : Le.battant.(1983).BluRay.1080p.DTS.[Borsalino].mkv

Format : Matroska

Format version : Version 4

File size : 18.9 GiB

Duration : 2 h 2 min

Overall bit rate mode : Variable

Overall bit rate : 22.1 Mb/s

Movie name : Le.battant.(1983).BluRay.1080p.DTS.[Borsalino]
Writing application : mkvmerge v56.1.0 (‘My Friend’) 64-bit

Writing library : libebml v1.4.2 + libmatroska v1.6.4

Video

ID : 1

Format : AVC

Format/Info : Advanced Video Codec

Format profile : [email protected]
Format settings : CABAC / 4 Ref Frames

Format settings, CABAC : Yes

Format settings, Reference frames : 4 frames

Codec ID : V_MPEG4/ISO/AVC

Duration : 2 h 2 min

Bit rate mode : Variable

Bit rate : 20.0 Mb/s

Maximum bit rate : 34.0 Mb/s

Width : 1 920 pixels

Height : 1 080 pixels

Display aspect ratio : 16:9

Frame rate mode : Constant

Frame rate : 24.000 FPS

Standard : NTSC

Color space : YUV

Chroma subsampling : 4:2:0

Bit depth : 8 bits

Scan type : Progressive

Bits/(Pixel*Frame) : 0.402

Stream size : 17.1 GiB (91%)

Title : French

Language : French

Default : Yes

Forced : No

Color range : Limited

Color primaries : BT.709

Transfer characteristics : BT.709

Matrix coefficients : BT.709

Audio

ID : 2

Format : DTS XLL

Format/Info : Digital Theater Systems

Commercial name : DTS-HD Master Audio

Codec ID : A_DTS

Duration : 2 h 2 min

Bit rate mode : Variable

Bit rate : 2 048 kb/s

Channel(s) : 6 channels

Channel layout : C L R Ls Rs LFE

Sampling rate : 48.0 kHz

Frame rate : 93.750 FPS (512 SPF)

Bit depth : 16 bits

Compression mode : Lossless

Stream size : 1.76 GiB (9%)

Title : French

Language : French

Default : Yes

Forced : No

Spoken language

Subtitles (srt files)










Le battant (1983) BluRay 1080Download Torrent Magnet

#battant #BluRay