l’Animal (1977) [DVDrip.(1920 Full Torrent Magnet Download

Download Torrent l’Animal (1977) [DVDrip.(1920 Movie Full in HD Result. Movie l’Animal (1977) [DVDrip.(1920 Torrent Download full. Movie l’Animal (1977) [DVDrip.(1920 torrent Magnet Download Full. l’Animal (1977) [DVDrip.(1920 Full Movie Torrent Download And Magnet Download For your PC And Mobiles. Latest Movie l’Animal (1977) [DVDrip.(1920 Download Link In Bottom.

Torrent And Magnet Links Below

General

Complete name : l’Animal.(1977).DVDrip.(1920x816px).AC-3.mkv

Format : Matroska

Format version : Version 4

File size : 8.56 GiB

Duration : 1 h 40 min

Overall bit rate : 12.2 Mb/s

Movie name : l’Animal (1977)

Video

ID : 1

Format : AVC

Format/Info : Advanced Video Codec

Format profile : [email protected]
Format settings : CABAC / 5 Ref Frames

Format settings, CABAC : Yes

Format settings, Reference frames : 5 frames

Codec ID : V_MPEG4/ISO/AVC

Duration : 1 h 40 min

Bit rate : 12.0 Mb/s

Width : 1 920 pixels

Height : 816 pixels

Display aspect ratio : 2.35:1

Frame rate mode : Constant

Frame rate : 24.000 FPS

Color space : YUV

Chroma subsampling : 4:2:0

Bit depth : 8 bits

Scan type : Progressive

Bits/(Pixel*Frame) : 0.319

Stream size : 8.42 GiB (98%)

Title : French

Writing library : x264 core 148 r2638 7599210

Encoding settings : cabac=1 / ref=5 / deblock=1:-1:-1 / analyse=0x3:0x133 / me=umh / subme=11 / psy=1 / psy_rd=1.00:0.15 / mixed_ref=1 / me_range=48 / chroma_me=1 / trellis=2 / 8x8dct=1 / cqm=0 / deadzone=21,11 / fast_pskip=0 / chroma_qp_offset=-3 / threads=18 / lookahead_threads=4 / sliced_threads=0 / nr=0 / decimate=1 / interlaced=0 / bluray_compat=0 / constrained_intra=0 / bframes=10 / b_pyramid=2 / b_adapt=2 / b_bias=0 / direct=3 / weightb=1 / open_gop=0 / weightp=2 / keyint=250 / keyint_min=23 / scenecut=40 / intra_refresh=0 / rc=2pass / mbtree=0 / bitrate=12000 / ratetol=1.0 / qcomp=0.60 / qpmin=0 / qpmax=69 / qpstep=4 / cplxblur=20.0 / qblur=0.5 / ip_ratio=1.40 / pb_ratio=1.30 / aq=2:1.00

Language : French

Default : Yes

Forced : No

Audio

ID : 2

Format : AC-3

Format/Info : Audio Coding 3

Commercial name : Dolby Digital

Codec ID : A_AC3

Duration : 1 h 40 min

Bit rate mode : Constant

Bit rate : 192 kb/s

Channel(s) : 2 channels

Channel layout : L R

Sampling rate : 48.0 kHz

Frame rate : 31.250 FPS (1536 SPF)

Compression mode : Lossy

Stream size : 138 MiB (2%)

Title : French

Language : French

Service kind : Complete Main

Default : No

Forced : No

Subtitles (srt files)









l’Animal (1977) [DVDrip.(1920Download Torrent Magnet

#lAnimal #DVDrip1920