L’aîné des ferchaux (1963) [D Full Torrent Magnet Download

Download Torrent L’aîné des ferchaux (1963) [D Movie Full in HD Result. Movie L’aîné des ferchaux (1963) [D Torrent Download full. Movie L’aîné des ferchaux (1963) [D torrent Magnet Download Full. L’aîné des ferchaux (1963) [D Full Movie Torrent Download And Magnet Download For your PC And Mobiles. Latest Movie L’aîné des ferchaux (1963) [D Download Link In Bottom.

Torrent And Magnet Links Below

General

Complete name : L’aîné.des.ferchaux.(1963).DVDrip.(720x436p).AC3.mkv

Format : Matroska

Format version : Version 4

File size : 2.11 GiB

Duration : 1 h 41 min

Overall bit rate : 2 984 kb/s

Video

ID : 1

Format : AVC

Format/Info : Advanced Video Codec

Format profile : [email protected]
Format settings : CABAC / 13 Ref Frames

Format settings, CABAC : Yes

Format settings, Reference frames : 13 frames

Codec ID : V_MPEG4/ISO/AVC

Duration : 1 h 41 min

Bit rate : 2 790 kb/s

Width : 720 pixels

Height : 436 pixels

Display aspect ratio : 2.35:1

Frame rate mode : Constant

Frame rate : 25.000 FPS

Color space : YUV

Chroma subsampling : 4:2:0

Bit depth : 8 bits

Scan type : Progressive

Bits/(Pixel*Frame) : 0.356

Stream size : 1.97 GiB (94%)

Title : French

Writing library : x264 core 148 r2708 86b7198

Encoding settings : cabac=1 / ref=14 / deblock=1:-3:-3 / analyse=0x3:0x133 / me=umh / subme=9 / psy=1 / psy_rd=1.00:0.15 / mixed_ref=1 / me_range=36 / chroma_me=1 / trellis=2 / 8x8dct=1 / cqm=0 / deadzone=21,11 / fast_pskip=1 / chroma_qp_offset=-3 / threads=14 / lookahead_threads=2 / sliced_threads=0 / nr=0 / decimate=1 / interlaced=0 / bluray_compat=0 / constrained_intra=0 / bframes=8 / b_pyramid=1 / b_adapt=2 / b_bias=0 / direct=3 / weightb=1 / open_gop=0 / weightp=2 / keyint=250 / keyint_min=25 / scenecut=40 / intra_refresh=0 / rc_lookahead=60 / rc=2pass / mbtree=1 / bitrate=2790 / ratetol=1.0 / qcomp=0.60 / qpmin=0 / qpmax=69 / qpstep=4 / cplxblur=20.0 / qblur=0.5 / vbv_maxrate=25000 / vbv_bufsize=31250 / nal_hrd=none / filler=0 / ip_ratio=1.40 / aq=1:1.00

Language : French

Default : Yes

Forced : No

Color range : Limited

Color primaries : BT.601 PAL

Transfer characteristics : BT.709

Matrix coefficients : BT.601

Audio

ID : 2

Format : AC-3

Format/Info : Audio Coding 3

Commercial name : Dolby Digital

Codec ID : A_AC3

Duration : 1 h 41 min

Bit rate mode : Constant

Bit rate : 192 kb/s

Channel(s) : 2 channels

Channel layout : L R

Sampling rate : 48.0 kHz

Frame rate : 31.250 FPS (1536 SPF)

Compression mode : Lossy

Stream size : 139 MiB (6%)

Title : French Stereo

Language : French

Service kind : Complete Main

Default : Yes

Forced : No

Subtitles (srt files)









L’aîné des ferchaux (1963) [DDownload Torrent Magnet

#Laîné #des #ferchaux