La viaccia – Le mauvais chemi Full Torrent Magnet Download

Download Torrent La viaccia – Le mauvais chemi Movie Full in HD Result. Movie La viaccia – Le mauvais chemi Torrent Download full. Movie La viaccia – Le mauvais chemi torrent Magnet Download Full. La viaccia – Le mauvais chemi Full Movie Torrent Download And Magnet Download For your PC And Mobiles. Latest Movie La viaccia – Le mauvais chemi Download Link In Bottom.

Torrent And Magnet Links Below

IMDB

Code:


General

Complete name : La.viaccia.(1961).DVDRip.1080p.AC3.(Hard-coded.French.subtitles).[Borsalino]La.viaccia.(1961).DVDRip.1080p.AC3.(Hard-coded.French.subtitles).[Borsalino].EN.srt

Format : SubRip

File size : 91.1 KiB

Text

Format : SubRip

Compression mode : Lossless

General

Complete name : La.viaccia.(1961).DVDRip.1080p.AC3.(Hard-coded.French.subtitles).[Borsalino]La.viaccia.(1961).DVDRip.1080p.AC3.(Hard-coded.French.subtitles).[Borsalino].mkv

Format : Matroska

Format version : Version 4

File size : 4.08 GiB

Duration : 1 h 41 min

Overall bit rate mode : Variable

Overall bit rate : 5 735 kb/s

Movie name : La.viaccia.(1961).DVDRip.1080p.AC3.(Hard-coded.French.subtitles).[Borsalino]
Writing application : mkvmerge v56.1.0 (‘My Friend’) 64-bit

Writing library : libebml v1.4.2 + libmatroska v1.6.4

Video

ID : 1

Format : MPEG Video

Format version : Version 2

Format profile : [email protected]
Format settings : CustomMatrix / BVOP

Format settings, BVOP : Yes

Format settings, Matrix : Custom

Format settings, GOP : M=3, N=12

Format settings, picture structure : Frame

Codec ID : V_MPEG2

Codec ID/Info : MPEG 1 or 2 Video

Duration : 1 h 41 min

Bit rate mode : Variable

Bit rate : 5 541 kb/s

Maximum bit rate : 8 500 kb/s

Width : 720 pixels

Height : 576 pixels

Display aspect ratio : 1.85:1

Original display aspect ratio : 4:3

Frame rate mode : Constant

Frame rate : 25.000 FPS

Standard : PAL

Color space : YUV

Chroma subsampling : 4:2:0

Bit depth : 8 bits

Scan type : Interlaced

Scan order : Top Field First

Compression mode : Lossy

Bits/(Pixel*Frame) : 0.534

Time code of first frame : 10:00:00:00

Time code source : Group of pictures header

GOP, Open/Closed : Open

Stream size : 3.94 GiB (97%)

Title : Italian

Language : Italian

Default : Yes

Forced : No

Audio

ID : 2

Format : AC-3

Format/Info : Audio Coding 3

Commercial name : Dolby Digital

Codec ID : A_AC3

Duration : 1 h 41 min

Bit rate mode : Constant

Bit rate : 192 kb/s

Channel(s) : 2 channels

Channel layout : L R

Sampling rate : 48.0 kHz

Frame rate : 31.250 FPS (1536 SPF)

Compression mode : Lossy

Stream size : 140 MiB (3%)

Title : Italian

Language : Italian

Service kind : Complete Main

Default : Yes

Forced : No

General

Complete name : La.viaccia.(1961).language.IT+ES.MPEG.(720x576p).AC3.[Borsalino]La.viaccia.(1961).language.IT+ES.MPEG.(720x576p).AC3.[Borsalino].EN.srt

Format : SubRip

File size : 86.6 KiB

Text

Format : SubRip

Compression mode : Lossless

General

Complete name : La.viaccia.(1961).language.IT+ES.MPEG.(720x576p).AC3.[Borsalino]La.viaccia.(1961).language.IT+ES.MPEG.(720x576p).AC3.[Borsalino].mkv

Format : Matroska

Format version : Version 4

File size : 4.40 GiB

Duration : 1 h 38 min

Overall bit rate mode : Variable

Overall bit rate : 6 416 kb/s

Movie name : La.viaccia.(1961).language.IT+ES.MPEG.(720x576p).AC3.[Borsalino]
Writing application : mkvmerge v56.1.0 (‘My Friend’) 64-bit

Writing library : libebml v1.4.2 + libmatroska v1.6.4

Video

ID : 1

Format : MPEG Video

Format version : Version 2

Format profile : [email protected]
Format settings : BVOP

Format settings, BVOP : Yes

Format settings, Matrix : Default

Format settings, GOP : M=3, N=12

Format settings, picture structure : Frame

Codec ID : V_MPEG2

Codec ID/Info : MPEG 1 or 2 Video

Duration : 1 h 38 min

Bit rate mode : Variable

Bit rate : 6 030 kb/s

Maximum bit rate : 9 000 kb/s

Width : 720 pixels

Height : 576 pixels

Display aspect ratio : 4:3

Frame rate mode : Constant

Frame rate : 25.000 FPS

Standard : PAL

Color space : YUV

Chroma subsampling : 4:2:0

Bit depth : 8 bits

Scan type : Interlaced

Scan order : Bottom Field First

Compression mode : Lossy

Bits/(Pixel*Frame) : 0.582

Time code of first frame : 00:00:00:00

Time code source : Group of pictures header

GOP, Open/Closed : Closed

Stream size : 4.13 GiB (94%)

Title : Italian

Language : Italian

Default : Yes

Forced : No

Audio #1

ID : 2

Format : AC-3

Format/Info : Audio Coding 3

Commercial name : Dolby Digital

Codec ID : A_AC3

Duration : 1 h 38 min

Bit rate mode : Constant

Bit rate : 192 kb/s

Channel(s) : 2 channels

Channel layout : L R

Sampling rate : 48.0 kHz

Frame rate : 31.250 FPS (1536 SPF)

Compression mode : Lossy

Stream size : 135 MiB (3%)

Title : Italian

Language : Italian

Service kind : Complete Main

Default : Yes

Forced : No

Audio #2

ID : 3

Format : AC-3

Format/Info : Audio Coding 3

Commercial name : Dolby Digital

Codec ID : A_AC3

Duration : 1 h 38 min

Bit rate mode : Constant

Bit rate : 192 kb/s

Channel(s) : 2 channels

Channel layout : L R

Sampling rate : 48.0 kHz

Frame rate : 31.250 FPS (1536 SPF)

Compression mode : Lossy

Stream size : 135 MiB (3%)

Title : Spanish

Language : Spanish

Service kind : Complete Main

Default : No

Forced : No

Spoken language DVDrip 1080p (hard coded French subtitles)

Subtitles (srt files)

Spoken language IT+ES MPEG


Subtitles (srt files)









La viaccia – Le mauvais chemiDownload Torrent Magnet

#viaccia #mauvais #chemi