La Scoumoune (1972) DVDrip (1 Full Torrent Magnet Download

Download Torrent La Scoumoune (1972) DVDrip (1 Movie Full in HD Result. Movie La Scoumoune (1972) DVDrip (1 Torrent Download full. Movie La Scoumoune (1972) DVDrip (1 torrent Magnet Download Full. La Scoumoune (1972) DVDrip (1 Full Movie Torrent Download And Magnet Download For your PC And Mobiles. Latest Movie La Scoumoune (1972) DVDrip (1 Download Link In Bottom.

Torrent And Magnet Links Below

IMDB

Code:


General

Complete name : La.Scoumoune.(1972).DVDrip.(1024x576px).AAC.[Borsalino].DE.srt

Format : SubRip

File size : 48.8 KiB

Text

Format : SubRip

Compression mode : Lossless

General

Complete name : La.Scoumoune.(1972).DVDrip.(1024x576px).AAC.[Borsalino].EL.srt

Format : SubRip

File size : 73.7 KiB

Text

Format : SubRip

Compression mode : Lossless

General

Complete name : La.Scoumoune.(1972).DVDrip.(1024x576px).AAC.[Borsalino].EN.srt

Format : SubRip

File size : 62.2 KiB

Text

Format : SubRip

Compression mode : Lossless

General

Complete name : La.Scoumoune.(1972).DVDrip.(1024x576px).AAC.[Borsalino].ES.srt

Format : SubRip

File size : 55.3 KiB

Text

Format : SubRip

Compression mode : Lossless

General

Complete name : La.Scoumoune.(1972).DVDrip.(1024x576px).AAC.[Borsalino].NL.srt

Format : SubRip

File size : 57.5 KiB

Text

Format : SubRip

Compression mode : Lossless

General

Complete name : La.Scoumoune.(1972).DVDrip.(1024x576px).AAC.[Borsalino].PT.srt

Format : SubRip

File size : 56.2 KiB

Text

Format : SubRip

Compression mode : Lossless

General

Complete name : La.Scoumoune.(1972).DVDrip.(1024x576px).AAC.[Borsalino].RO.srt

Format : SubRip

File size : 65.5 KiB

Text

Format : SubRip

Compression mode : Lossless

General

Complete name : La.Scoumoune.(1972).DVDrip.(1024x576px).AAC.[Borsalino].mkv

Format : Matroska

Format version : Version 4

File size : 2.60 GiB

Duration : 1 h 41 min

Overall bit rate : 3 667 kb/s

Movie name : La.Scoumoune.(1972).DVDrip.(1024x576px).AAC.[Borsalino]
Writing application : mkvmerge v56.1.0 (‘My Friend’) 64-bit

Writing library : libebml v1.4.2 + libmatroska v1.6.4

Video

ID : 1

Format : AVC

Format/Info : Advanced Video Codec

Format profile : [email protected]
Format settings : CABAC / 4 Ref Frames

Format settings, CABAC : Yes

Format settings, Reference frames : 4 frames

Format settings, GOP : M=3, N=30

Muxing mode : Container [email protected]
Codec ID : V_MPEG4/ISO/AVC

Duration : 1 h 41 min

Bit rate : 3 473 kb/s

Width : 1 024 pixels

Height : 576 pixels

Display aspect ratio : 16:9

Frame rate mode : Constant

Frame rate : 25.000 FPS

Color space : YUV

Chroma subsampling : 4:2:0

Bit depth : 8 bits

Scan type : Progressive

Bits/(Pixel*Frame) : 0.236

Stream size : 2.46 GiB (95%)

Title : French

Language : French

Default : Yes

Forced : No

Audio

ID : 2

Format : AAC LC

Format/Info : Advanced Audio Codec Low Complexity

Codec ID : A_AAC-2

Duration : 1 h 41 min

Bit rate : 192 kb/s

Channel(s) : 2 channels

Channel layout : L R

Sampling rate : 48.0 kHz

Frame rate : 46.875 FPS (1024 SPF)

Compression mode : Lossy

Stream size : 139 MiB (5%)

Title : French

Language : French

Default : Yes

Forced : No

Spoken language

Subtitles (srt files)















La Scoumoune (1972) DVDrip (1Download Torrent Magnet

#Scoumoune #DVDrip