La mer à boire (1963) DVDrip Full Torrent Magnet Download

Download Torrent La mer à boire (1963) DVDrip Movie Full in HD Result. Movie La mer à boire (1963) DVDrip Torrent Download full. Movie La mer à boire (1963) DVDrip torrent Magnet Download Full. La mer à boire (1963) DVDrip Full Movie Torrent Download And Magnet Download For your PC And Mobiles. Latest Movie La mer à boire (1963) DVDrip Download Link In Bottom.

Torrent And Magnet Links Below

IMDB

Code:


General

Complete name : La.mer.a.boire.(1963).DVDrip.(672x400p).MPEG.[Borsalino].mkv

Format : Matroska

Format version : Version 4

File size : 1.39 GiB

Duration : 1 h 29 min

Overall bit rate : 2 216 kb/s

Movie name : La.mer.a.boire.(1963).DVDrip.(672x400p).MPEG.[Borsalino]
Writing application : mkvmerge v56.1.0 (‘My Friend’) 64-bit

Writing library : libebml v1.4.2 + libmatroska v1.6.4

Video

ID : 1

Format : MPEG-4 Visual

Format profile : Advanced [email protected]
Format settings : BVOP1 / Custom Matrix

Format settings, BVOP : 1

Format settings, QPel : No

Format settings, GMC : No warppoints

Format settings, Matrix : Custom

Codec ID : V_MS/VFW/FOURCC / XVID

Codec ID/Hint : XviD

Duration : 1 h 29 min

Bit rate : 2 086 kb/s

Width : 672 pixels

Height : 400 pixels

Display aspect ratio : 5:3

Frame rate mode : Constant

Frame rate : 25.000 FPS

Color space : YUV

Chroma subsampling : 4:2:0

Bit depth : 8 bits

Scan type : Progressive

Compression mode : Lossy

Bits/(Pixel*Frame) : 0.310

Stream size : 1.31 GiB (94%)

Title : French

Writing library : XviD 67

Language : French

Default : Yes

Forced : No

Audio

ID : 2

Format : MPEG Audio

Format version : Version 1

Format profile : Layer 3

Format settings : Joint stereo / MS Stereo

Codec ID : A_MPEG/L3

Codec ID/Hint : MP3

Duration : 1 h 29 min

Bit rate mode : Constant

Bit rate : 128 kb/s

Channel(s) : 2 channels

Sampling rate : 48.0 kHz

Frame rate : 41.667 FPS (1152 SPF)

Compression mode : Lossy

Stream size : 82.1 MiB (6%)

Title : French

Writing library : LAME3.99r

Encoding settings : -m j -V 4 -q 5 -lowpass 17 -b 128

Language : French

Default : Yes

Forced : No

Spoken language

Subtitles (srt files)

None










La mer à boire (1963) DVDrip Download Torrent Magnet

#mer #boire #DVDrip