La grande illusion (1937) Stu Full Torrent Magnet Download

Download Torrent La grande illusion (1937) Stu Movie Full in HD Result. Movie La grande illusion (1937) Stu Torrent Download full. Movie La grande illusion (1937) Stu torrent Magnet Download Full. La grande illusion (1937) Stu Full Movie Torrent Download And Magnet Download For your PC And Mobiles. Latest Movie La grande illusion (1937) Stu Download Link In Bottom.

Torrent And Magnet Links Below

IMDB

Code:


General

Complete name : La.grande.illusion.(1937).Studio.Canal.Blu-ray.1080p.DTS.[Borsalino].DE.srt

Format : SubRip

File size : 67.7 KiB

Text

Format : SubRip

Compression mode : Lossless

General

Complete name : La.grande.illusion.(1937).Studio.Canal.Blu-ray.1080p.DTS.[Borsalino].EN.srt

Format : SubRip

File size : 67.7 KiB

Text

Format : SubRip

Compression mode : Lossless

General

Complete name : La.grande.illusion.(1937).Studio.Canal.Blu-ray.1080p.DTS.[Borsalino].ES.srt

Format : SubRip

File size : 68.6 KiB

Text

Format : SubRip

Compression mode : Lossless

General

Complete name : La.grande.illusion.(1937).Studio.Canal.Blu-ray.1080p.DTS.[Borsalino].FR.srt

Format : SubRip

File size : 119 KiB

Text

Format : SubRip

Compression mode : Lossless

General

Complete name : La.grande.illusion.(1937).Studio.Canal.Blu-ray.1080p.DTS.[Borsalino].IT.srt

Format : SubRip

File size : 81.4 KiB

Text

Format : SubRip

Compression mode : Lossless

General

Complete name : La.grande.illusion.(1937).Studio.Canal.Blu-ray.1080p.DTS.[Borsalino].NL.srt

Format : SubRip

File size : 58.8 KiB

Text

Format : SubRip

Compression mode : Lossless

General

Complete name : La.grande.illusion.(1937).Studio.Canal.Blu-ray.1080p.DTS.[Borsalino].PT.srt

Format : SubRip

File size : 76.9 KiB

Text

Format : SubRip

Compression mode : Lossless

General

Complete name : La.grande.illusion.(1937).Studio.Canal.Blu-ray.1080p.DTS.[Borsalino].mkv

Format : Matroska

Format version : Version 4

File size : 9.11 GiB

Duration : 1 h 53 min

Overall bit rate : 11.5 Mb/s

Movie name : La.grande.illusion.(1937).Studio.Canal.Blu-ray.1080p.DTS.[Borsalino]
Writing application : mkvmerge v56.1.0 (‘My Friend’) 64-bit

Writing library : libebml v1.4.2 + libmatroska v1.6.4

Video

ID : 1

Format : AVC

Format/Info : Advanced Video Codec

Format profile : [email protected]
Format settings : CABAC / 5 Ref Frames

Format settings, CABAC : Yes

Format settings, Reference frames : 5 frames

Codec ID : V_MPEG4/ISO/AVC

Duration : 1 h 53 min

Bit rate : 9 956 kb/s

Width : 1 480 pixels

Height : 1 080 pixels

Display aspect ratio : 1.370

Frame rate mode : Constant

Frame rate : 24.000 FPS

Color space : YUV

Chroma subsampling : 4:2:0

Bit depth : 8 bits

Scan type : Progressive

Bits/(Pixel*Frame) : 0.260

Stream size : 7.91 GiB (87%)

Title : French

Writing library : x264 core 138 r2358 9e941d1

Encoding settings : cabac=1 / ref=5 / deblock=1:-3:-3 / analyse=0x3:0x133 / me=umh / subme=9 / psy=1 / psy_rd=1.00:0.00 / mixed_ref=1 / me_range=24 / chroma_me=1 / trellis=1 / 8x8dct=1 / cqm=0 / deadzone=21,11 / fast_pskip=0 / chroma_qp_offset=-2 / threads=4 / lookahead_threads=1 / sliced_threads=0 / nr=0 / decimate=0 / interlaced=0 / bluray_compat=0 / constrained_intra=0 / bframes=4 / b_pyramid=2 / b_adapt=2 / b_bias=0 / direct=1 / weightb=1 / open_gop=0 / weightp=2 / keyint=230 / keyint_min=24 / scenecut=40 / intra_refresh=0 / rc_lookahead=60 / rc=2pass / mbtree=1 / bitrate=9956 / ratetol=1.0 / qcomp=0.60 / qpmin=0 / qpmax=69 / qpstep=4 / cplxblur=20.0 / qblur=0.5 / vbv_maxrate=40000 / vbv_bufsize=30000 / nal_hrd=none / ip_ratio=1.40 / aq=1:1.00

Language : French

Default : Yes

Forced : No

Audio

ID : 2

Format : DTS

Format/Info : Digital Theater Systems

Codec ID : A_DTS

Duration : 1 h 53 min

Bit rate mode : Constant

Bit rate : 1 509 kb/s

Channel(s) : 2 channels

Channel layout : L R

Sampling rate : 48.0 kHz

Frame rate : 93.750 FPS (512 SPF)

Bit depth : 24 bits

Compression mode : Lossy

Stream size : 1.20 GiB (13%)

Title : French

Language : French

Default : Yes

Forced : No

Spoken language

Subtitles (srt files)















La grande illusion (1937) StuDownload Torrent Magnet

#grande #illusion #Stu