La ferme du pendu (1945) DVDr Full Torrent Magnet Download

Download Torrent La ferme du pendu (1945) DVDr Movie Full in HD Result. Movie La ferme du pendu (1945) DVDr Torrent Download full. Movie La ferme du pendu (1945) DVDr torrent Magnet Download Full. La ferme du pendu (1945) DVDr Full Movie Torrent Download And Magnet Download For your PC And Mobiles. Latest Movie La ferme du pendu (1945) DVDr Download Link In Bottom.

Torrent And Magnet Links Below

IMDB

Code:


General

Complete name : La.ferme.du.pendu.(1945).DVDrip.1080p.AC3.[Borsalino].mkv

Format : Matroska

Format version : Version 4

File size : 1.90 GiB

Duration : 1 h 26 min

Overall bit rate : 3 130 kb/s

Movie name : La.ferme.du.pendu.(1945).DVDrip.1080p.AC3.[Borsalino]
Encoded date : UTC 2021-06-05 16:32:59

Writing application : mkvmerge v56.1.0 (‘My Friend’) 64-bit

Writing library : libebml v1.4.2 + libmatroska v1.6.4

Video

ID : 1

Format : AVC

Format/Info : Advanced Video Codec

Format profile : [email protected]
Format settings : CABAC / 5 Ref Frames

Format settings, CABAC : Yes

Format settings, Reference frames : 5 frames

Codec ID : V_MPEG4/ISO/AVC

Duration : 1 h 26 min

Bit rate : 3 000 kb/s

Width : 1 436 pixels

Height : 1 080 pixels

Display aspect ratio : 4:3

Frame rate mode : Constant

Frame rate : 23.976 (24000/1001) FPS

Color space : YUV

Chroma subsampling : 4:2:0

Bit depth : 8 bits

Scan type : Progressive

Bits/(Pixel*Frame) : 0.081

Stream size : 1.82 GiB (96%)

Title : French

Writing library : x264 core 157 r2935 545de2f

Encoding settings : cabac=1 / ref=5 / deblock=1:0:0 / analyse=0x3:0x113 / me=hex / subme=8 / psy=1 / psy_rd=1.00:0.00 / mixed_ref=1 / me_range=16 / chroma_me=1 / trellis=2 / 8x8dct=1 / cqm=0 / deadzone=21,11 / fast_pskip=1 / chroma_qp_offset=-2 / threads=9 / lookahead_threads=1 / sliced_threads=0 / nr=0 / decimate=1 / interlaced=0 / bluray_compat=0 / constrained_intra=0 / bframes=3 / b_pyramid=2 / b_adapt=1 / b_bias=0 / direct=3 / weightb=1 / open_gop=0 / weightp=2 / keyint=240 / keyint_min=24 / scenecut=40 / intra_refresh=0 / rc_lookahead=50 / rc=2pass / mbtree=1 / bitrate=3000 / ratetol=1.0 / qcomp=0.60 / qpmin=0 / qpmax=69 / qpstep=4 / cplxblur=20.0 / qblur=0.5 / vbv_maxrate=62500 / vbv_bufsize=78125 / nal_hrd=none / filler=0 / ip_ratio=1.40 / aq=1:1.00

Language : French

Default : Yes

Forced : No

Color range : Limited

Color primaries : BT.709

Transfer characteristics : BT.709

Matrix coefficients : BT.709

Audio

ID : 2

Format : AC-3

Format/Info : Audio Coding 3

Commercial name : Dolby Digital

Codec ID : A_AC3

Duration : 1 h 26 min

Bit rate mode : Constant

Bit rate : 128 kb/s

Channel(s) : 2 channels

Channel layout : L R

Sampling rate : 48.0 kHz

Frame rate : 31.250 FPS (1536 SPF)

Compression mode : Lossy

Delay relative to video : -7 ms

Stream size : 79.4 MiB (4%)

Title : French

Language : French

Service kind : Complete Main

Default : Yes

Forced : No

Spoken language

Subtitles (srt files)

None









La ferme du pendu (1945) DVDrDownload Torrent Magnet

#ferme #pendu #DVDr