La candidata ideale-The perfe Full Torrent Magnet Download

Download Torrent La candidata ideale-The perfe Movie Full in HD Result. Movie La candidata ideale-The perfe Torrent Download full. Movie La candidata ideale-The perfe torrent Magnet Download Full. La candidata ideale-The perfe Full Movie Torrent Download And Magnet Download For your PC And Mobiles. Latest Movie La candidata ideale-The perfe Download Link In Bottom.

Torrent And Magnet Links Below

Regista: Haifaa Al-Mansour

Genere: Drammatico

Anno: 2019

Paese: Arabia Saudita, Germania

Durata: 101 min

Data di uscita: 03 settembre 2020

Distribuzione: Academy Two

Mila Alzahrani, Dhay, Nourah Al Awad, Khalid Abdulrhim

La candidata ideale, il film diretto da Haifaa Al-Mansour, segue la storia di Maryam (Mila Alzahrani) una giovane e determinata dottoressa saudita, che lavora in una piccola clinica. Nonostante le sue qualifiche, ogni giorno deve conquistarsi il rispetto dei colleghi maschi e l’approvazione dei pazienti. Quando, per un problema con i documenti, le viene impedito di volare a Dubai per un convegno ed è costretta a misurarsi con la burocrazia, si imbatte per caso nel modulo di candidatura alle elezioni cittadine e decide di parteciparvi. Mentre il padre musicista è in tour lontano da casa, per la prima serie di concerti pubblici autorizzati nel Regno da decenni, Maryam ingaggia le due sorelle più giovani per gestire la raccolta fondi e organizzare la sua campagna elettorale. Le tre sorelle insieme a Maryam si troveranno a combattere contro le discriminazioni di genere nella comunità locale conservatrice e patriarcale, non ancora pronta ad accettare la prima donna all’interno dell’amministrazione comunale. Ma la coraggiosa candidatura di Maryam prende piede e sfiderà la comunità conservatrice. Sarà un testa a testa tra lei e il suo sfidante maschio. Maryam e la sua famiglia dovranno mettere in campo tutta la loro determinazione e la loro creatività per il progresso della loro società tradizionalista.

A determined young Saudi doctor’s surprise run for office in the local city elections sweeps up her family and community as they struggle to accept their town’s first female candidate.




General

Unique ID : 140324248516069436689749576708040128561 (0x6991779B576D99F2C2071DB618477831)

Complete name : La candidata ideale-The perfect candidate (2019) ITA-ARA Ac3 5.1 BDRip 1080p H264 [ArMor].mkv

Format : Matroska

Format version : Version 4

File size : 4.26 GiB

Duration : 1 h 46 min

Overall bit rate : 5 728 kb/s

Encoded date : UTC 2021-01-25 13:51:58

Writing application : mkvmerge v52.0.0 (‘Secret For The Mad’) 64-bit

Writing library : libebml v1.4.1 + libmatroska v1.6.2 / Lavf58.29.100

Video

ID : 1

Format : AVC

Format/Info : Advanced Video Codec

Format profile : [email protected]
Format settings : CABAC / 4 Ref Frames

Format settings, CABAC : Yes

Format settings, Reference frames : 4 frames

Codec ID : V_MPEG4/ISO/AVC

Duration : 1 h 44 min

Bit rate : 5 000 kb/s

Width : 1 920 pixels

Height : 800 pixels

Display aspect ratio : 2.40:1

Frame rate mode : Constant

Frame rate : 24.000 FPS

Color space : YUV

Chroma subsampling : 4:2:0

Bit depth : 8 bits

Scan type : Progressive

Bits/(Pixel*Frame) : 0.136

Stream size : 3.60 GiB (84%)

Writing library : x264 core 157 r2935 545de2f

Encoding settings : cabac=1 / ref=2 / deblock=1:0:0 / analyse=0x1:0x111 / me=hex / subme=6 / psy=1 / psy_rd=1.00:0.00 / mixed_ref=1 / me_range=16 / chroma_me=1 / trellis=1 / 8x8dct=0 / cqm=0 / deadzone=21,11 / fast_pskip=1 / chroma_qp_offset=-2 / threads=12 / lookahead_threads=2 / sliced_threads=0 / nr=0 / decimate=1 / interlaced=0 / bluray_compat=0 / constrained_intra=0 / bframes=3 / b_pyramid=2 / b_adapt=1 / b_bias=0 / direct=1 / weightb=1 / open_gop=0 / weightp=1 / keyint=240 / keyint_min=24 / scenecut=40 / intra_refresh=0 / rc_lookahead=30 / rc=abr / mbtree=1 / bitrate=5000 / ratetol=1.0 / qcomp=0.60 / qpmin=0 / qpmax=69 / qpstep=4 / vbv_maxrate=50000 / vbv_bufsize=62500 / nal_hrd=none / filler=0 / ip_ratio=1.40 / aq=1:1.00

Default : Yes

Forced : No

Color range : Limited

Color primaries : BT.709

Transfer characteristics : BT.709

Matrix coefficients : BT.709

Audio #1

ID : 2

Format : AC-3

Format/Info : Audio Coding 3

Commercial name : Dolby Digital

Codec ID : A_AC3

Duration : 1 h 46 min

Bit rate mode : Constant

Bit rate : 448 kb/s

Channel(s) : 6 channels

Channel layout : L R C LFE Ls Rs

Sampling rate : 48.0 kHz

Frame rate : 31.250 FPS (1536 SPF)

Compression mode : Lossy

Stream size : 341 MiB (8%)

Title : DVD

Language : Italian

Service kind : Complete Main

Default : Yes

Forced : No

Audio #2

ID : 3

Format : AC-3

Format/Info : Audio Coding 3

Commercial name : Dolby Digital

Codec ID : A_AC3

Duration : 1 h 44 min

Bit rate mode : Constant

Bit rate : 448 kb/s

Channel(s) : 6 channels

Channel layout : L R C LFE Ls Rs

Sampling rate : 48.0 kHz

Frame rate : 31.250 FPS (1536 SPF)

Compression mode : Lossy

Stream size : 336 MiB (8%)

Title : DTS

Language : Arabic

Service kind : Complete Main

Default : No

Forced : No


La candidata ideale-The perfeDownload Torrent Magnet

#candidata #idealeThe #perfe