La boum (1980) BDRemux 1080p Full Torrent Magnet Download

Download Torrent La boum (1980) BDRemux 1080p Movie Full in HD Result. Movie La boum (1980) BDRemux 1080p Torrent Download full. Movie La boum (1980) BDRemux 1080p torrent Magnet Download Full. La boum (1980) BDRemux 1080p Full Movie Torrent Download And Magnet Download For your PC And Mobiles. Latest Movie La boum (1980) BDRemux 1080p Download Link In Bottom.

Torrent And Magnet Links Below

IMDB

Code:


General

Complete name : La.boum.(1980).BDRemux.1080p.DTS.[Borsalino].DE.srt

Format : SubRip

File size : 89.8 KiB

Text

Format : SubRip

Compression mode : Lossless

General

Complete name : La.boum.(1980).BDRemux.1080p.DTS.[Borsalino].EN.srt

Format : SubRip

File size : 88.7 KiB

Text

Format : SubRip

Compression mode : Lossless

General

Complete name : La.boum.(1980).BDRemux.1080p.DTS.[Borsalino].ES.srt

Format : SubRip

File size : 97.4 KiB

Text

Format : SubRip

Compression mode : Lossless

General

Complete name : La.boum.(1980).BDRemux.1080p.DTS.[Borsalino].FR.srt

Format : SubRip

File size : 107 KiB

Text

Format : SubRip

Compression mode : Lossless

General

Complete name : La.boum.(1980).BDRemux.1080p.DTS.[Borsalino].IT.srt

Format : SubRip

File size : 99.5 KiB

Text

Format : SubRip

Compression mode : Lossless

General

Complete name : La.boum.(1980).BDRemux.1080p.DTS.[Borsalino].NL.srt

Format : SubRip

File size : 94.3 KiB

Text

Format : SubRip

Compression mode : Lossless

General

Complete name : La.boum.(1980).BDRemux.1080p.DTS.[Borsalino].PT.srt

Format : SubRip

File size : 98.9 KiB

Text

Format : SubRip

Compression mode : Lossless

General

Complete name : La.boum.(1980).BDRemux.1080p.DTS.[Borsalino].RO.srt

Format : SubRip

File size : 80.3 KiB

Text

Format : SubRip

Compression mode : Lossless

General

Complete name : La.boum.(1980).BDRemux.1080p.DTS.[Borsalino].RU.srt

Format : SubRip

File size : 101 KiB

Text

Format : SubRip

Compression mode : Lossless

General

Complete name : La.boum.(1980).BDRemux.1080p.DTS.[Borsalino].mkv

Format : Matroska

Format version : Version 4

File size : 18.4 GiB

Duration : 1 h 50 min

Overall bit rate mode : Variable

Overall bit rate : 23.9 Mb/s

Movie name : La.boum.(1980).BDRemux.1080p.DTS.[Borsalino]
Writing application : mkvmerge v56.1.0 (‘My Friend’) 64-bit

Writing library : libebml v1.4.2 + libmatroska v1.6.4

Video

ID : 1

ID in the original source medium : 4113 (0x1011)

Format : AVC

Format/Info : Advanced Video Codec

Format profile : [email protected]
Format settings : CABAC / 4 Ref Frames

Format settings, CABAC : Yes

Format settings, Reference frames : 4 frames

Codec ID : V_MPEG4/ISO/AVC

Duration : 1 h 50 min

Bit rate mode : Variable

Bit rate : 23.0 Mb/s

Maximum bit rate : 36.0 Mb/s

Width : 1 920 pixels

Height : 1 080 pixels

Display aspect ratio : 16:9

Frame rate mode : Constant

Frame rate : 24.000 FPS

Color space : YUV

Chroma subsampling : 4:2:0

Bit depth : 8 bits

Scan type : Progressive

Bits/(Pixel*Frame) : 0.461

Stream size : 17.7 GiB (96%)

Title : French

Language : French

Default : Yes

Forced : No

Color range : Limited

Color primaries : BT.709

Transfer characteristics : BT.709

Matrix coefficients : BT.709

Original source medium : Blu-ray

Audio

ID : 2

ID in the original source medium : 4360 (0x1108)

Format : DTS XLL

Format/Info : Digital Theater Systems

Commercial name : DTS-HD Master Audio

Codec ID : A_DTS

Duration : 1 h 50 min

Bit rate mode : Variable

Bit rate : 923 kb/s

Channel(s) : 2 channels

Channel layout : L R

Sampling rate : 48.0 kHz

Frame rate : 93.750 FPS (512 SPF)

Bit depth : 16 bits

Compression mode : Lossless

Stream size : 730 MiB (4%)

Title : French

Language : French

Default : No

Forced : No

Original source medium : Blu-ray

Text

ID : 3

ID in the original source medium : 4610 (0x1202)

Format : PGS

Muxing mode : zlib

Codec ID : S_HDMV/PGS

Codec ID/Info : Picture based subtitle format used on BDs/HD-DVDs

Duration : 1 h 47 min

Bit rate : 22.7 kb/s

Count of elements : 3334

Stream size : 17.5 MiB (0%)

Title : French

Language : French

Default : No

Forced : No

Original source medium : Blu-ray

Spoken language

Subtitles (srt files)





















La boum (1980) BDRemux 1080p Download Torrent Magnet

#boum #BDRemux #1080p