Krack.2021.1080p.AHA.WEB-DL.H Full Torrent Magnet Download

Download Torrent Krack.2021.1080p.AHA.WEB-DL.H Movie Full in HD Result. Movie Krack.2021.1080p.AHA.WEB-DL.H Torrent Download full. Movie Krack.2021.1080p.AHA.WEB-DL.H torrent Magnet Download Full. Krack.2021.1080p.AHA.WEB-DL.H Full Movie Torrent Download And Magnet Download For your PC And Mobiles. Latest Movie Krack.2021.1080p.AHA.WEB-DL.H Download Link In Bottom.

Torrent And Magnet Links Below

Krack.2021.1080p.AHA.WEB-DL.Hindi-Telugu.DDP2.0.ESub.x264-The.PunisheR.mkv

MediaInfos:
General

Complete name : Krack.2021.1080p.AHA.WEB-DL.Hindi-Telugu.DDP2.0.ESub.x264-The.PunisheR.mkv

Format : Matroska

Format version : Version 4

File size : 4.65 GiB

Duration : 2 h 30 min

Overall bit rate mode : Variable

Overall bit rate : 4 412 kb/s

Encoded date : UTC 2021-06-05 15:19:59

Writing application : mkvmerge v57.0.0 (‘Till The End’) 64-bit

Writing library : libebml v1.4.2 + libmatroska v1.6.4

Attachments : Encoded.By-The.PunisheR.jpg

Video

ID : 1

Format : AVC

Format/Info : Advanced Video Codec

Format profile : [email protected]
Format settings : CABAC / 3 Ref Frames

Format settings, CABAC : Yes

Format settings, Reference frames : 3 frames

Codec ID : V_MPEG4/ISO/AVC

Duration : 2 h 30 min

Bit rate mode : Variable

Bit rate : 3 994 kb/s

Maximum bit rate : 6 000 kb/s

Width : 1 920 pixels

Height : 1 080 pixels

Display aspect ratio : 16:9

Frame rate mode : Constant

Frame rate : 24.000 FPS

Color space : YUV

Chroma subsampling : 4:2:0

Bit depth : 8 bits

Scan type : Progressive

Bits/(Pixel*Frame) : 0.080

Stream size : 4.21 GiB (91%)

Title : 1080p / AHA / WEB-DL / AVC ~ The.PunisheR

Language : English

Default : Yes

Forced : No

Audio #1

ID : 2

Format : E-AC-3

Format/Info : Enhanced AC-3

Commercial name : Dolby Digital Plus

Codec ID : A_EAC3

Duration : 2 h 30 min

Bit rate mode : Constant

Bit rate : 224 kb/s

Channel(s) : 2 channels

Channel layout : L R

Sampling rate : 48.0 kHz

Frame rate : 31.250 FPS (1536 SPF)

Compression mode : Lossy

Stream size : 242 MiB (5%)

Title : Org. DTH / DD+ 2.0 / 224kbps / 48kHz ~ The.PunisheR

Language : Hindi

Service kind : Complete Main

Default : Yes

Forced : No

Audio #2

ID : 3

Format : E-AC-3

Format/Info : Enhanced AC-3

Commercial name : Dolby Digital Plus

Codec ID : A_EAC3

Duration : 2 h 30 min

Bit rate mode : Constant

Bit rate : 192 kb/s

Channel(s) : 2 channels

Channel layout : L R

Sampling rate : 48.0 kHz

Frame rate : 31.250 FPS (1536 SPF)

Compression mode : Lossy

Stream size : 207 MiB (4%)

Title : DD+ 2.0 / 192kbps / 48kHz ~ The.PunisheR

Language : Telugu

Service kind : Complete Main

Default : No

Forced : No

Text

ID : 4

Format : UTF-8

Codec ID : S_TEXT/UTF8

Codec ID/Info : UTF-8 Plain Text

Duration : 2 h 29 min

Bit rate : 66 b/s

Count of elements : 2031

Stream size : 72.2 KiB (0%)

Title : English-SRT

Language : English

Default : Yes

Forced : No

Screenshots:


Quote:


Original Untouched TV-DL Hindi Audio ~ By Yusuf Lob
And Synced With AHA Telugu WEB-DL ~ By imSamirOFFICIAL

Thanks Bros 😀

Enjoy 🙂

Krack.2021.1080p.AHA.WEB-DL.HDownload Torrent Magnet

#Krack20211080pAHAWEBDLH