Koi Sath Hai 2021 Hindi 1080p Full Torrent Magnet Download

Download Torrent Koi Sath Hai 2021 Hindi 1080p Movie Full in HD Result. Movie Koi Sath Hai 2021 Hindi 1080p Torrent Download full. Movie Koi Sath Hai 2021 Hindi 1080p torrent Magnet Download Full. Koi Sath Hai 2021 Hindi 1080p Full Movie Torrent Download And Magnet Download For your PC And Mobiles. Latest Movie Koi Sath Hai 2021 Hindi 1080p Download Link In Bottom.

Torrent And Magnet Links Below










General

Complete name : Koi Sath Hai 2021 Hindi 1080p Web-DL x264 AAC [TMB].mkv

Format : Matroska

Format version : Version 4

File size : 4.24 GiB

Duration : 1 h 53 min

Overall bit rate : 5 340 kb/s

Video

Format : AVC

Format/Info : Advanced Video Codec

Format profile : [email protected]
Format settings : CABAC / 4 Ref Frames

Format settings, CABAC : Yes

Format settings, Reference : 4 frames

Codec ID : V_MPEG4/ISO/AVC

Duration : 1 h 53 min

Bit rate : 5 274 kb/s

Width : 2 534 pixels

Height : 1 080 pixels

Display aspect ratio : 2.35:1

Frame rate mode : Constant

Frame rate : 24.000 FPS

Color space : YUV

Chroma subsampling : 4:2:0

Bit depth : 8 bits

Scan type : Progressive

Bits/(Pixel*Frame) : 0.080

Stream size : 4.19 GiB (99%)

Audio

Format : AAC LC

Format/Info : Advanced Audio Codec Low Complexity

Codec ID : A_AAC-2

Duration : 1 h 53 min

Bit rate : 64.0 kb/s

Channel(s) : 2 channels

Channel layout : L R

Sampling rate : 48.0 kHz

Frame rate : 46.875 FPS (1024 SPF)

Compression mode : Lossy

Stream size : 52.0 MiB (1%)

Uploaded & Shared by TMB

Seeding 24×7… Extreme Seeding…

Enjoy!

Koi Sath Hai 2021 Hindi 1080pDownload Torrent Magnet

#Koi #Sath #Hai #Hindi #1080p