Koi Jaane Na 2021 x264 720p W Full Torrent Magnet Download

Download Torrent Koi Jaane Na 2021 x264 720p W Movie Full in HD Result. Movie Koi Jaane Na 2021 x264 720p W Torrent Download full. Movie Koi Jaane Na 2021 x264 720p W torrent Magnet Download Full. Koi Jaane Na 2021 x264 720p W Full Movie Torrent Download And Magnet Download For your PC And Mobiles. Latest Movie Koi Jaane Na 2021 x264 720p W Download Link In Bottom.

Torrent And Magnet Links Below

Greets

Admin , Moderator , Noir, Ex0duS5150, theeshiznit, MisterQ, UserHEVC, miok, Silmarillion, Mr. Blue, MaDHeX and many more ;

Join Us On TeleGram

https://t.me/gopisahit

Koi Jaane Na 2021 x264 720p WebHD Esub Hindi THE GOPI SAHI

Format : Matroska

Format version : Version 4

File size : 1.06 GiB

Duration : 2 h 18 min

Overall bit rate : 1 092 kb/s

Movie name : Koi Jaane Na 2021 GOPI SAHI

Encoded date : UTC 2021-05-27 04:22:52

Video

ID : 1

Format : AVC

Format/Info : Advanced Video Codec

Format profile : [email protected]
Format settings : CABAC / 5 Ref Frames

Format settings, CABAC : Yes

Format settings, Reference fra : 5 frames

Codec ID : V_MPEG4/ISO/AVC

Duration : 2 h 18 min

Bit rate : 899 kb/s

Width : 1 264 pixels

Height : 528 pixels

Display aspect ratio : 2.40:1

Frame rate mode : Constant

Frame rate : 24.000 FPS

Color space : YUV

Chroma subsampling : 4:2:0

Bit depth : 8 bits

Scan type : Progressive

Bits/(Pixel*Frame) : 0.056

Stream size : 889 MiB (82%)

Title : GOPI SAHI

Writing library : x264 core 157 r2935 545de2f

Audio

ID : 2

Format : AAC LC

Format/Info : Advanced Audio Codec Low Complexity

Codec ID : A_AAC-2

Duration : 2 h 18 min

Bit rate : 192 kb/s

Channel(s) : 6 channels

Channel layout : C L R Ls Rs LFE

Sampling rate : 48.0 kHz

Frame rate : 46.875 FPS (1024 SPF)

Compression mode : Lossy

Delay relative to video : -21 ms

Stream size : 189 MiB (18%)

Title : GOPI SAHI

Language : Hindi

Default : Yes

Forced : No

Text

ID : 3

Format : UTF-8

Codec ID : S_TEXT/UTF8

Codec ID/Info : UTF-8 Plain Text

Duration : 2 h 13 min

Bit rate : 60 b/s

Count of elements : 1896

Stream size : 59.1 KiB (0%)

Title : GOPI SAHI

Language : English

Default : Yes

Forced : No

Menu

00:00:00.000 : :Center Board Certificate

00:00:05.000 : :Disclaimer

00:00:14.000 : :Opening Credits

00:02:02.083 : :Scene 4

00:13:44.125 : :Title Sequence

00:13:56.000 : :Scene 6

00:20:53.042 : :Scene 7

00:30:20.000 : :Scene 8

00:38:57.208 : :Scene 9

00:46:20.042 : :Scene 10

00:56:04.000 : :Scene 11

01:04:27.042 : :Scene 12

01:12:10.167 : :Scene 13

01:22:59.042 : :Scene 14

01:31:16.000 : :Scene 15

01:44:43.000 : :Scene 16

01:51:09.125 : :Scene 17

02:02:35.167 : :Scene 18

02:08:41.167 : :Scene 19

02:13:14.167 : :Epilogue

02:16:21.125 : :End Credits

Koi Jaane Na 2021 x264 720p WDownload Torrent Magnet

#Koi #Jaane #x264 #720p