Koi Jaane Na (2021) 1080p AMZ Full Torrent Magnet Download

Download Torrent Koi Jaane Na (2021) 1080p AMZ Movie Full in HD Result. Movie Koi Jaane Na (2021) 1080p AMZ Torrent Download full. Movie Koi Jaane Na (2021) 1080p AMZ torrent Magnet Download Full. Koi Jaane Na (2021) 1080p AMZ Full Movie Torrent Download And Magnet Download For your PC And Mobiles. Latest Movie Koi Jaane Na (2021) 1080p AMZ Download Link In Bottom.

Torrent And Magnet Links Below

Koi Jaane Na (2021) 1080p AMZN WEB-DL HEVC H.265 DDP 5.1 ESub – TombDoc

Code:

Format : Matroska

Format version : Version 4

File size : 3.97 GiB

Duration : 2 h 18 min

Overall bit rate : 4 110 kb/s

Video

ID : 1

Format : HEVC

Format/Info : High Efficiency Video Coding

Format profile : [email protected]@Main

Codec ID : V_MPEGH/ISO/HEVC

Duration : 2 h 18 min

Bit rate : 3 468 kb/s

Width : 1 920 pixels

Height : 800 pixels

Display aspect ratio : 2.40:1

Frame rate mode : Constant

Frame rate : 24.000 FPS

Standard : NTSC

Color space : YUV

Chroma subsampling : 4:2:0

Bit depth : 8 bits

Bits/(Pixel*Frame) : 0.094

Stream size : 3.35 GiB (84%)

Default : Yes

Forced : No

Color range : Limited

Color primaries : BT.709

Transfer characteristics : BT.709

Matrix coefficients : BT.709

Audio

ID : 2

Format : E-AC-3

Format/Info : Enhanced AC-3

Commercial name : Dolby Digital Plus

Codec ID : A_EAC3

Duration : 2 h 18 min

Bit rate mode : Constant

Bit rate : 640 kb/s

Channel(s) : 6 channels

Channel layout : L R C LFE Ls Rs

Sampling rate : 48.0 kHz

Frame rate : 31.250 FPS (1536 SPF)

Compression mode : Lossy

Stream size : 633 MiB (16%)

Language : Hindi

Service kind : Complete Main

Default : Yes

Forced : No

Text

ID : 3

Format : UTF-8

Codec ID : S_TEXT/UTF8

Codec ID/Info : UTF-8 Plain Text

Duration : 2 h 13 min

Bit rate : 60 b/s

Count of elements : 1895

Stream size : 59.0 KiB (0%)

Title : SDH

Language : English

Default : Yes

Forced : No

Menu

00:00:00.000 : :Center Board Certificate

00:00:05.000 : :Disclaimer

00:00:14.000 : :Opening Credits

00:02:02.000 : :Scene 4

00:13:44.000 : :Title Sequence

00:13:56.000 : :Scene 6

00:20:53.000 : :Scene 7

00:30:20.000 : :Scene 8

00:38:57.000 : :Scene 9

00:46:20.000 : :Scene 10

00:56:04.000 : :Scene 11

01:04:27.000 : :Scene 12

01:12:10.000 : :Scene 13

01:22:59.000 : :Scene 14

01:31:16.000 : :Scene 15

01:44:43.000 : :Scene 16

01:51:09.000 : :Scene 17

02:02:35.000 : :Scene 18

02:08:41.000 : :Scene 19

02:13:14.000 : :Epilogue

02:16:21.000 : :End Credits

Koi Jaane Na (2021) 1080p AMZDownload Torrent Magnet

#Koi #Jaane #1080p #AMZ