Killing.Me.Softly.2002.1080p. Full Torrent Magnet Download

Download Torrent Killing.Me.Softly.2002.1080p. Movie Full in HD Result. Movie Killing.Me.Softly.2002.1080p. Torrent Download full. Movie Killing.Me.Softly.2002.1080p. torrent Magnet Download Full. Killing.Me.Softly.2002.1080p. Full Movie Torrent Download And Magnet Download For your PC And Mobiles. Latest Movie Killing.Me.Softly.2002.1080p. Download Link In Bottom.

Torrent And Magnet Links Below

Quote:

*************************************************************

******************************Thumbnbil:*********************

******************************Screenshots:********************

screenshot 1

screenshot 2

screenshot 3

screenshot 4

screenshot 5

screenshot 6

screenshot 7

screenshot 8

screenshot 9

screenshot 0

******************************************************

18+.Killing.Me.Softly.2002.1080p.BluRay.x264.LLG.mp4

Format : MPEG-4

Format profile : Base Media

Codec ID : isom (isom/iso2/avc1/mp41)

File size : 1.19 GiB

Duration : 1 h 40 min

Overall bit rate mode : Variable

Overall bit rate : 1 700 kb/s

Writing application : Lavf58.29.100

Video

ID : 1

Format : AVC

Format/Info : Advanced Video Codec

Format profile : [email protected]
Format settings : CABAC / 1 Ref Frames

Format settings, CABAC : Yes

Format settings, Reference frames : 1 frame

Codec ID : avc1

Codec ID/Info : Advanced Video Coding

Duration : 1 h 40 min

Bit rate mode : Variable

Bit rate : 1 534 kb/s

Maximum bit rate : 4 500 kb/s

Width : 1 904 pixels

Height : 1 024 pixels

Display aspect ratio : 1.85:1

Frame rate mode : Constant

Frame rate : 23.976 (23976/1000) FPS

Color space : YUV

Chroma subsampling : 4:2:0

Bit depth : 8 bits

Scan type : Progressive

Bits/(Pixel*Frame) : 0.033

Stream size : 1.08 GiB (90%)

Codec configuration box : avcC

Audio

ID : 2

Format : AAC LC

Codec ID : mp4a-40-2

Duration : 1 h 40 min

Bit rate mode : Constant

Bit rate : 161 kb/s

Channel(s) : 2 channels

Channel layout : L R

Sampling rate : 48.0 kHz

Frame rate : 46.875 FPS (1024 SPF)

Compression mode : Lossy

Stream size : 115 MiB (9%)

Default : Yes

Alternate group : 1

********************************************************

Killing.Me.Softly.2002.1080p.Download Torrent Magnet

#KillingMeSoftly20021080p