Kids.Return.1996.1080p.BluRay Full Torrent Magnet Download

Download Torrent Kids.Return.1996.1080p.BluRay Movie Full in HD Result. Movie Kids.Return.1996.1080p.BluRay Torrent Download full. Movie Kids.Return.1996.1080p.BluRay torrent Magnet Download Full. Kids.Return.1996.1080p.BluRay Full Movie Torrent Download And Magnet Download For your PC And Mobiles. Latest Movie Kids.Return.1996.1080p.BluRay Download Link In Bottom.

Torrent And Magnet Links Below

Release: Kids.Return.1996.1080p.BluRay.x264.AAC.HORiZON-ArtSubs

IMDB: https://www.imdb.com/title/tt0116767

Subtitle: English (soft)

Plot: Dropping out of high school, two friends at first find success, one as a up-and-coming boxer and one as a low level gangster. Yet, their life decisions still find a way of catching up with them.

General

Complete name : Kids.Return.1996.1080p.BluRay.x264.AAC.HORiZON-ArtSubs.mkv

Format : Matroska

Format version : Version 4

File size : 2.73 GiB

Duration : 1 h 47 min

Overall bit rate : 3 627 kb/s

Encoded date : UTC 2021-04-17 15:53:22

Writing application : mkvmerge v56.0.0 (‘Strasbourg / St. Denis’) 64-bit

Writing library : libebml v1.4.2 + libmatroska v1.6.4

Video

ID : 1

Format : AVC

Format/Info : Advanced Video Codec

Format profile : [email protected]
Format settings : CABAC / 4 Ref Frames

Format settings, CABAC : Yes

Format settings, Reference : 4 frames

Codec ID : V_MPEG4/ISO/AVC

Duration : 1 h 47 min

Bit rate : 3 300 kb/s

Width : 1 920 pixels

Height : 1 038 pixels

Display aspect ratio : 1.85:1

Frame rate mode : Constant

Frame rate : 23.976 (24000/1001) FPS

Color space : YUV

Chroma subsampling : 4:2:0

Bit depth : 8 bits

Scan type : Progressive

Bits/(Pixel*Frame) : 0.069

Stream size : 2.49 GiB (91%)

Writing library : x264 core 157 r2935 545de2f

Encoding settings : cabac=1 / ref=4 / deblock=1:-2:-2 / analyse=0x3:0x133 / me=umh / subme=10 / psy=1 / psy_rd=1.00:0.25 / mixed_ref=1 / me_range=32 / chroma_me=1 / trellis=2 / 8x8dct=1 / cqm=0 / deadzone=6,6 / fast_pskip=1 / chroma_qp_offset=-4 / threads=6 / lookahead_threads=1 / sliced_threads=0 / nr=0 / decimate=0 / interlaced=0 / bluray_compat=0 / constrained_intra=0 / bframes=8 / b_pyramid=2 / b_adapt=2 / b_bias=0 / direct=3 / weightb=1 / open_gop=0 / weightp=2 / keyint=240 / keyint_min=24 / scenecut=40 / intra_refresh=0 / rc_lookahead=60 / rc=2pass / mbtree=1 / bitrate=3300 / ratetol=1.0 / qcomp=0.70 / qpmin=0 / qpmax=69 / qpstep=4 / cplxblur=20.0 / qblur=0.5 / vbv_maxrate=25000 / vbv_bufsize=78125 / nal_hrd=none / filler=0 / ip_ratio=1.10 / aq=3:1.20

Default : Yes

Forced : No

Color range : Limited

Color primaries : BT.709

Transfer characteristics : BT.709

Matrix coefficients : BT.709

Audio

ID : 2

Format : AAC LC

Format/Info : Advanced Audio Codec Low Complexity

Codec ID : A_AAC-2

Duration : 1 h 47 min

Bit rate : 321 kb/s

Channel(s) : 2 channels

Channel layout : L R

Sampling rate : 48.0 kHz

Frame rate : 46.875 FPS (1024 SPF)

Compression mode : Lossy

Delay relative to video : 27 ms

Stream size : 247 MiB (9%)

Language : Japanese

Default : Yes

Forced : No

Text #1

ID : 3

Format : UTF-8

Codec ID : S_TEXT/UTF8

Codec ID/Info : UTF-8 Plain Text

Duration : 1 h 47 min

Bit rate : 31 b/s

Count of elements : 1064

Stream size : 24.6 KiB (0%)

Language : English

Default : Yes

Forced : No

Text #2

ID : 4

Format : PGS

Muxing mode : zlib

Codec ID : S_HDMV/PGS

Codec ID/Info : Picture based subtitle format used on BDs/HD-DVDs

Duration : 1 h 47 min

Bit rate : 20.1 kb/s

Count of elements : 2132

Stream size : 15.4 MiB (1%)

Language : English

Default : No

Forced : No

SCREENSHOTS:





Kids.Return.1996.1080p.BluRayDownload Torrent Magnet

#KidsReturn19961080pBluRay