Kathmandu Connection S01 720p Full Torrent Magnet Download

Download Torrent Kathmandu Connection S01 720p Movie Full in HD Result. Movie Kathmandu Connection S01 720p Torrent Download full. Movie Kathmandu Connection S01 720p torrent Magnet Download Full. Kathmandu Connection S01 720p Full Movie Torrent Download And Magnet Download For your PC And Mobiles. Latest Movie Kathmandu Connection S01 720p Download Link In Bottom.

Torrent And Magnet Links Below

Kathmandu Connection S01 720p WEB-DL AAC2.0 HEVC x265 – SunGeorge

Quote:

Kathmandu Connection S01 720p WEB-DL AAC2.0 HEVC x265 – SunGeorge





Code:

General

Complete name : Kathmandu.Connection.S01E01.720p.WEB-DL.AAC2.0.HEVC.x265.mkv

Format : Matroska

Format version : Version 4

File size : 347 MiB

Duration : 42 min 50 s

Overall bit rate : 1 132 kb/s

Movie name : MovieAIO.us

Writing application : Lavf58.45.100

Writing library : Lavf58.45.100

ErrorDetectionType : Per level 1

Video

ID : 1

Format : HEVC

Format/Info : High Efficiency Video Coding

Format profile : [email protected]@Main

Codec ID : V_MPEGH/ISO/HEVC

Duration : 42 min 50 s

Bit rate : 3 086 kb/s

Width : 1 280 pixels

Height : 720 pixels

Display aspect ratio : 16:9

Frame rate mode : Variable

Frame rate : 25.000 FPS

Color space : YUV

Chroma subsampling : 4:2:0

Bit depth : 8 bits

Bits/(Pixel*Frame) : 0.134

Stream size : 946 MiB

Title : MovieAIO.us

Writing library : x265 3.2.1+1-b5c86a64bbbe:[Linux][GCC 9.3.0][64 bit] 8bit+10bit+12bit

Encoding settings : cpuid=1111039 / frame-threads=5 / wpp / no-pmode / no-pme / no-psnr / no-ssim / log-level=2 / input-csp=1 / input-res=1280×720 / interlace=0 / total-frames=0 / level-idc=0 / high-tier=1 / uhd-bd=0 / ref=1 / no-allow-non-conformance / no-repeat-headers / annexb / no-aud / no-hrd / info / hash=0 / no-temporal-layers / open-gop / min-keyint=25 / keyint=250 / gop-lookahead=0 / bframes=3 / b-adapt=0 / b-pyramid / bframe-bias=0 / rc-lookahead=10 / lookahead-slices=4 / scenecut=40 / radl=0 / no-splice / no-intra-refresh / ctu=32 / min-cu-size=8 / no-rect / no-amp / max-tu-size=32 / tu-inter-depth=1 / tu-intra-depth=1 / limit-tu=0 / rdoq-level=0 / dynamic-rd=0.00 / no-ssim-rd / signhide / no-tskip / nr-intra=0 / nr-inter=0 / no-constrained-intra / strong-intra-smoothing / max-merge=2 / limit-refs=0 / no-limit-modes / me=1 / subme=1 / merange=57 / temporal-mvp / no-hme / no-weightp / no-weightb / no-analyze-src-pics / deblock=0:0 / no-sao / no-sao-non-deblock / rd=2 / selective-sao=0 / early-skip / rskip / fast-intra / no-tskip-fast / no-cu-lossless / no-b-intra / no-splitrd-skip / rdpenalty=0 / psy-rd=2.00 / psy-rdoq=0.00 / no-rd-refine / no-lossless / cbqpoffs=0 / crqpoffs=0 / rc=cbr / bitrate=1037 / qcomp=0.60 / qpstep=4 / stats-write=0 / stats-read=0 / vbv-maxrate=1037 / vbv-bufsize=519 / vbv-init=0.8 / ipratio=1.40 / pbratio=1.30 / aq-mode=1 / aq-strength=0.00 / cutree / zone-count=0 / no-strict-cbr / qg-size=32 / no-rc-grain / qpmax=69 / qpmin=0 / no-const-vbv / sar=1 / overscan=0 / videoformat=5 / range=0 / colorprim=2 / transfer=2 / colormatrix=2 / chromaloc=0 / display-window=0 / cll=0,0 / min-luma=0 / max-luma=255 / log2-max-poc-lsb=8 / vui-timing-info / vui-hrd-info / slices=1 / no-opt-qp-pps / no-opt-ref-list-length-pps / no-multi-pass-opt-rps / scenecut-bias=0.05 / no-opt-cu-delta-qp / no-aq-motion / no-hdr / no-hdr-opt / no-dhdr10-opt / no-idr-recovery-sei / analysis-reuse-level=5 / scale-factor=0 / refine-intra=0 / refine-inter=0 / refine-mv=1 / refine-ctu-distortion=0 / no-limit-sao / ctu-info=0 / no-lowpass-dct / refine-analysis-type=0 / copy-pic=1 / max-ausize-factor=1.0 / no-dynamic-refine / no-single-sei / no-hevc-aq / no-svt / no-field / qp-adaptation-range=1.00

Default : Yes

Forced : No

Color range : Limited

Audio

ID : 2

Format : AAC LC

Format/Info : Advanced Audio Codec Low Complexity

Codec ID : A_AAC-2

Duration : 42 min 50 s

Bit rate : 64.0 kb/s

Channel(s) : 2 channels

Channel layout : L R

Sampling rate : 96.0 kHz

Frame rate : 93.750 FPS (1024 SPF)

Compression mode : Lossy

Stream size : 19.6 MiB (6%)

Title : MovieAIO.us

Writing library : Lavc58.91.100 aac

Language : Hindi

Default : Yes

Forced : No

Text

ID : 3

Format : UTF-8

Codec ID : S_TEXT/UTF8

Codec ID/Info : UTF-8 Plain Text

Duration : 39 min 14 s

Bit rate : 60 b/s

Count of elements : 562

Stream size : 17.1 KiB (0%)

Title : MovieAIO.us

Language : English

Default : Yes

Forced : No

Kathmandu Connection S01 720pDownload Torrent Magnet

#Kathmandu #Connection #S01 #720p